Documentary

Disneynature Earth 2007 BD RNM mp4

  • Download 5x Faster
  • Download torrent
  • Direct Download
  • Rate this torrent +  |  -
Disneynature Earth 2007 BD RNM mp4

Free and Direct Download with Usenet 300GB+ free


Torrent info

Name:Disneynature Earth 2007 BD RNM mp4

Total Size: 772.18 MB

Magnet: Magnet Link

Seeds: 0

Leechers: 0

Stream: Watch Online @ Movie4u

Last Updated: 2011-12-03 06:32:03 (Update Now)

Torrent added: 2009-09-11 06:30:04




Torrent Files List


Disneynature Earth 2007 BD RNM.mp4 (Size: 772.18 MB) (Files: 1)

 Disneynature Earth 2007 BD RNM.mp4

772.18 MB
 

Announce URL:

Torrent description

Format : MPEG-4
Format profile : Base Media
Codec ID : isom
File size : 772 MiB
Duration : 1h 30mn
Overall bit rate : 1 199 Kbps
Encoded date : UTC 2009-09-10 23:34:30
Tagged date : UTC 2009-09-10 23:34:30

Video
ID : 1
Format : AVC
Format/Info : Advanced Video Codec
Format profile : Baseline@L4.0
Format settings, CABAC : No
Format settings, ReFrames : 1 frame
Codec ID : avc1
Codec ID/Info : Advanced Video Coding
Duration : 1h 30mn
Bit rate mode : Variable
Bit rate : 1 043 Kbps
Width : 576 pixels
Height : 320 pixels
Display aspect ratio : 16/9
Frame rate mode : Constant
Frame rate : 30.000 fps
Resolution : 24 bits
Colorimetry : 4:2:0
Scan type : Progressive
Bits/(Pixel*Frame) : 0.189
Stream size : 671 MiB (87%)
Encoded date : UTC 2009-09-10 23:34:30
Tagged date : UTC 2009-09-10 23:34:30

Audio
ID : 2
Format : AAC
Format/Info : Advanced Audio Codec
Format version : Version 4
Format profile : LC
Format settings, SBR : No
Codec ID : 40
Duration : 1h 30mn
Bit rate mode : Variable
Bit rate : 152 Kbps
Channel(s) : 2 channels
Channel positions : L R
Sampling rate : 44.1 KHz
Resolution : 16 bits
Stream size : 97.8 MiB (13%)
Encoded date : UTC 2009-09-10 23:34:30
Tagged date : UTC 2009-09-10 23:34:30

related torrents

Torrent name

health leech seeds Size
 

comments (0)

Main Menu