Comedy

Get Smart CaM XviD THS

  • Download 5x Faster
  • Download torrent
  • Direct Download
  • Rate this torrent +  |  -
Get Smart CaM XviD THS

Anonymous and Free Direct Download


Torrent info

Name:Get Smart CaM XviD THS

Total Size: 709.07 MB

Magnet: Magnet Link

Seeds: 1

Leechers: 195

Stream: Watch Online @ Movie4u

Last Updated: 2010-02-19 04:01:51 (Update Now)

Torrent added: 2008-07-03 21:34:15



VPN For Torrents

Torrent Files List


Get.Smart.CaM.XviD-THS.avi (Size: 709.07 MB) (Files: 1)

 Get.Smart.CaM.XviD-THS.avi

709.07 MB
 

Announce URL: http://open.tracker.thepiratebay.org/announce

Torrent description

General
Complete name : Get.Smart.CaM.XviD-THS.avi
Format : AVI
Format/Info : Audio Video Interleave
File size : 709 MiB
Duration : 1h 44mn
Overal bit rate : 949 Kbps
Writing library : VirtualDub build 28292/release

Video
Format : MPEG-4 Visual
Format profile : Streaming [email protected]
Format settings, BVOP : Yes
Format settings, QPel : No
Format settings, GMC : No warppoints
Format settings, Matrix : Default
Muxing mode : Packet Bitstream
Codec ID : XVID
Codec ID/Hint : XviD
Duration : 1h 44mn
Bit rate : 810 Kbps
Width : 560 pixels
Height : 308 pixels
Display aspect ratio : 16/9
Frame rate : 29.970 fps
Resolution : 8 bits
Colorimetry : 4:2:0
Scan type : Progressive
Bits/(Pixel*Frame) : 0.157
Stream size : 605 MiB
Writing library : XviD 1.1.0 (UTC 2005-11-22)

Audio
Format : MPEG Audio
Format version : Version 1
Format profile : Layer 3
Codec ID : 55
Codec ID/Hint : MP3
Duration : 1h 44mn
Bit rate mode : Constant
Bit rate : 128 Kbps
Channel(s) : 2 channels
Sampling rate : 48.0 KHz
Resolution : 16 bits
Stream size : 95.6 MiB

Get Smart CaM XviD THS preview 0

Get Smart CaM XviD THS preview 1

Get Smart CaM XviD THS preview 2

Get Smart CaM XviD THS preview 3

Get Smart CaM XviD THS preview 4

Hash FCA485840EA5081F2AF968A4EE9D90B430A98886



related torrents

Torrent name

health leech seeds Size

Get Smart CAM XVID STG

6 10 733.81 MB 0
 


comments (0)

Main Menu