Rock

ELP Welcome back my friends (live 1974) (Eac Flac Lossoless)[colombo bt org]

  • Download 5x Faster
  • Download torrent
  • Direct Download
  • Rate this torrent +  |  -

Torrent info

Name:ELP Welcome back my friends (live 1974) (Eac Flac Lossoless)[colombo bt org]

Total Size: 623.37 MB

Magnet: Magnet Link

Seeds: 0

Leechers: 0

Stream: Watch Online @ Movie4u

Last Updated: 2010-12-22 01:34:46 (Update Now)

Torrent added: 2009-09-10 10:03:02




Torrent Files List


ELP - CD1204.jpg (Size: 623.37 MB) (Files: 22)

 ELP - CD1204.jpg

221.86 KB

 ELP - CD2205.jpg

224.01 KB

 ELP - fronte207.jpg

1.40 MB

 ELP - interno208.jpg

806.70 KB

 ELP - retro206.jpg

1.08 MB

 ELP cd1

  01 Hoedown.flac

27.02 MB

  02 Jerusalem.flac

19.17 MB

  03 Toccata.flac

41.26 MB

  04 Tarkus- a) Eruption b) Stones Of Years c) Iconoclast d) Mass e) Manticore f) Battlefield (Epitaph) g) Aquatarkus.flac

159.01 MB

  05 Take A Pebble- a) Still ... You Turn Me On b) Lucky Man.flac

57.18 MB

  ELP cd1.ffp

0.50 KB

  Emerson, Lake And Palmer - Welcome Back My Friends To The Show That Never Ends - Ladies And Gentlemen (CD 1).log

3.13 KB

  Emerson, Lake And Palmer - Welcome Back My Friends To The Show That Never Ends - Ladies And Gentlemen (CD 1).m3u

0.63 KB

  Welcome Back My Friends To The Show That Never Ends - Ladies And Gentlemen (CD 1).cue

1.34 KB

 ELP cd2

  01 Piano Improvisations Including Friedrich Gulda's 'Fugue' And Joe Sullivan's 'Little Rock Getaway'.flac

60.42 MB

  02 Take A Pebble (Conclusion).flac

16.15 MB

  03 Jeremy Bender,The Sheriff (Medley).flac

32.15 MB

  04 Karn Evil 9 a) 1st Impression b) 2nd Impression c) 3rd Impression.flac

207.31 MB

  ELP cd2.ffp

0.49 KB

  Emerson, Lake & Palmer - Welcome Back My Friends To The Show That NeverEnds (Disc 2).log

2.79 KB

  Emerson, Lake & Palmer - Welcome Back My Friends To The Show That NeverEnds (Disc 2).m3u

0.63 KB

  Welcome Back My Friends To The Show That NeverEnds (Disc 2).cue

1.19 KB
 

Announce URL: http://colombo-bt.org:2710/announce

Torrent description




"EMERSON LAKE & PALMER - Welcome back my friends to the show that never ends (1974)"








Titolo: "ELP - Welcome back my friends to the show that never ends (1974)"
Etichetta: Leadclass / Castle Communications
Genere: Rock progressivo
Formato: Flac Level 8
Copertine: sì
Fonte: CD originale
Edizione - Remastered 1996


Codice:
Exact Audio Copy V0.99 prebeta 3 from 28. July 2007

EAC extraction logfile from 20. April 2008, 12:21

Emerson, Lake And Palmer / Welcome Back My Friends To The Show That Never Ends - Ladies And Gentlemen (CD 1)

Used drive : PLEXTOR DVDR PX-800A Adapter: 1 ID: 0

Read mode : Secure
Utilize accurate stream : Yes
Defeat audio cache : Yes
Make use of C2 pointers : No

Read offset correction : 48
Overread into Lead-In and Lead-Out : No
Fill up missing offset samples with silence : Yes
Delete leading and trailing silent blocks : No
Null samples used in CRC calculations : No
Used interface : Installed external ASPI interface
Gap handling : Appended to previous track

Used output format : Internal WAV Routines
Sample format : 44.100 Hz; 16 Bit; Stereo


TOC of the extracted CD

Track | Start | Length | Start sector | End sector
---------------------------------------------------------
1 | 0:00.32 | 4:27.48 | 32 | 20104
2 | 4:28.05 | 3:18.52 | 20105 | 35006
3 | 7:46.57 | 7:23.18 | 35007 | 68249
4 | 15:10.00 | 27:24.40 | 68250 | 191589
5 | 42:34.40 | 11:06.65 | 191590 | 241604


Track 1

Filename C:\Documents and Settings\Stefano\Desktop\ELP - Welcome back my friends(remaster)\ELP cd1\01 Hoedown.wav

Pre-gap length 0:00:02.32

Peak level 90.4 %
Track quality 99.7 %
Test CRC 5B6AB1AB
Copy CRC B986F11C
Track not present in AccurateRip database
Copy OK

Track 2

Filename C:\Documents and Settings\Stefano\Desktop\ELP - Welcome back my friends(remaster)\ELP cd1\02 Jerusalem.wav

Peak level 77.1 %
Track quality 100.0 %
Test CRC 63EB32C9
Copy CRC 63EB32C9
Track not present in AccurateRip database
Copy OK

Track 3

Filename C:\Documents and Settings\Stefano\Desktop\ELP - Welcome back my friends(remaster)\ELP cd1\03 Toccata.wav

Peak level 79.7 %
Track quality 99.9 %
Test CRC F993E53E
Copy CRC F993E53E
Track not present in AccurateRip database
Copy OK

Track 4

Filename C:\Documents and Settings\Stefano\Desktop\ELP - Welcome back my friends(remaster)\ELP cd1\04 Tarkus- a) Eruption b) Stones Of Years c) Iconoclast d) Mass e) Manticore f) Battlefield (Epitaph) g) Aquatarkus.wav

Pre-gap length 0:00:01.00

Peak level 100.0 %
Track quality 100.0 %
Test CRC 3B5F5215
Copy CRC 3B5F5215
Track not present in AccurateRip database
Copy OK

Track 5

Filename C:\Documents and Settings\Stefano\Desktop\ELP - Welcome back my friends(remaster)\ELP cd1\05 Take A Pebble- a) Still ... You Turn Me On b) Lucky Man.wav

Peak level 89.6 %
Track quality 100.0 %
Test CRC D8AB6E2B
Copy CRC D8AB6E2B
Track not present in AccurateRip database
Copy OK


None of the tracks are present in the AccurateRip database

No errors occurred

End of status report



Exact Audio Copy V0.99 prebeta 3 from 28. July 2007

EAC extraction logfile from 20. April 2008, 13:12

Emerson, Lake & Palmer / Welcome Back My Friends To The Show That NeverEnds (Disc 2)

Used drive : PLEXTOR DVDR PX-800A Adapter: 1 ID: 0

Read mode : Secure
Utilize accurate stream : Yes
Defeat audio cache : Yes
Make use of C2 pointers : No

Read offset correction : 48
Overread into Lead-In and Lead-Out : No
Fill up missing offset samples with silence : Yes
Delete leading and trailing silent blocks : No
Null samples used in CRC calculations : No
Used interface : Installed external ASPI interface
Gap handling : Appended to previous track

Used output format : Internal WAV Routines
Sample format : 44.100 Hz; 16 Bit; Stereo


TOC of the extracted CD

Track | Start | Length | Start sector | End sector
---------------------------------------------------------
1 | 0:00.32 | 11:53.13 | 32 | 53519
2 | 11:53.45 | 3:14.27 | 53520 | 68096
3 | 15:07.72 | 5:24.35 | 68097 | 92431
4 | 20:32.32 | 35:18.40 | 92432 | 251321


Track 1

Filename C:\Documents and Settings\Stefano\Desktop\ELP - Welcome back my friends(remaster)\ELP cd2\01 Piano Improvisations Including Friedrich Gulda's 'Fugue' And Joe Sullivan's 'Little Rock Getaway'.wav

Pre-gap length 0:00:02.32

Peak level 100.0 %
Track quality 100.0 %
Test CRC BC821BA5
Copy CRC BC821BA5
Track not present in AccurateRip database
Copy OK

Track 2

Filename C:\Documents and Settings\Stefano\Desktop\ELP - Welcome back my friends(remaster)\ELP cd2\02 Take A Pebble (Conclusion).wav

Peak level 92.6 %
Track quality 100.0 %
Test CRC FDC9E0FF
Copy CRC FDC9E0FF
Track not present in AccurateRip database
Copy OK

Track 3

Filename C:\Documents and Settings\Stefano\Desktop\ELP - Welcome back my friends(remaster)\ELP cd2\03 Jeremy Bender,The Sheriff (Medley).wav

Peak level 92.1 %
Track quality 100.0 %
Test CRC 16B745B8
Copy CRC 16B745B8
Track not present in AccurateRip database
Copy OK

Track 4

Filename C:\Documents and Settings\Stefano\Desktop\ELP - Welcome back my friends(remaster)\ELP cd2\04 Karn Evil 9 a) 1st Impression b) 2nd Impression c) 3rd Impression.wav

Pre-gap length 0:00:00.62

Peak level 97.1 %
Track quality 100.0 %
Test CRC 9BC90518
Copy CRC 9BC90518
Track not present in AccurateRip database
Copy OK


None of the tracks are present in the AccurateRip database

No errors occurred

End of status report







CD1
01.Hoedown
02.Jerusalem
03.Toccata
04.Tarkus
05.Take a pebble
a.still you turn me on
b.lucky man

CD2
01.Piano improvisations
a.fugue
b.little rock getaway
02.Take a pebble (conclusion)
03.Jeremy Bender / The sheriff
04.Karn Evil 9






EMERSON LAKE & PALMER: probabilmente il punto più alto raggiunto dal “progressive rock” degli anni settanta.
WELCOME BACK MY FRIENDS TO THE SHOW THAT NEVER ENDS (ladies and gentlemen Emerson Lake & Palmer) è un monumentale live uscito nel 1974 sottoforma di triplo LP a testimonianza perenne del tour 1973/1974.
Tour che è un po’ il riassunto dei cinque anni migliori degli ELP: album convincenti, esibizioni dal vivo leggendarie, il rock come forma d’arte libera da legami di qualsiasi tipo.
All’epoca il disco arrivò al quarto posto della prestigiosa classifica americana di Billboard, e questo la dice lunga sulla vitalità del rock di quei tempi: persino un triplo, lungo, difficile album dal vivo come questo poteva arrivare in cima alle classifiche.
Chi scrive è un ammiratore convinto del gruppo di Keith Emerson, dunque certe valutazioni potranno sembrare anche di parte, ma è indubbio che questo live contiene il sunto, l’essenza del rock degli anni settanta.
Brani magici protratti nello spazio grazie ad improvvisazioni feroci e convincenti; di lì a poco il rock sinfonico o progressivo sarebbe caduto sotto i colpi di una auto indulgenza senza più limiti e improvvisazioni senza più cuore, ma non in questo caso, qui siamo ancora alle prese con una certa ingenuità di fondo che rende la musica viva e affascinante.
TAKE A PEBBLE, STILL…YOU TURN ME ON, LUCKY MAN, JEREMY BENDER, THE SHERIFF, PIANO IMPROVISATIONS, FUGUE, KARN EVIL 2ND IMPRESSION…soltanto a scrivere questi titoli mi vengono i brividi.

Dopo la pubblicazione di questo album, il grupposi prese una pausa. Riapparve nel 1977 con WORKS Volume 1 e Volume 2 (e conseguente tournée nel 1977-78 prima con una orchestra di 70 elementi e poi in trio), nel 1978 con LOVE BEACH, nel 1979 con IN CONCERT (live ricavato dal tour del 1977, poi ripubblicato molti anni più tardi con parecchi brani in più e con il titolo di WORKS LIVE) per poi sciogliersi.
Negli anni 80 (Emerson Lake & Powell) e negli anni novanta (ELP originali) il gruppo si rifece vivo con 3 album da studio e un paio di ulteriori live, ma rimase lontano dai fasti degli anni settanta, sia in termini di successo che di qualità musicale. Vederli però dal vivo nel 1992 all’Arena di Verona fu comunque una emozione assai profonda.

related torrents

Torrent name

health leech seeds Size
 


comments (0)

Main Menu