Rock

EDGAR AND JOHNNY WINTER Together (Remaster 2007) (1976) [Eac Flac +[colombo bt org]

  • Download 5x Faster
  • Download torrent
  • Direct Download
  • Rate this torrent +  |  -

Torrent info

Name:EDGAR AND JOHNNY WINTER Together (Remaster 2007) (1976) [Eac Flac +[colombo bt org]

Total Size: 264.95 MB

Magnet: Magnet Link

Seeds: 0

Leechers: 1

Stream: Watch Online @ Movie4u

Last Updated: 2015-09-07 03:09:22 (Update Now)

Torrent added: 2009-09-10 09:22:10




Torrent Files List


01 Track01.flac (Size: 264.95 MB) (Files: 21)

 01 Track01.flac

26.75 MB

 02 Track02.flac

21.14 MB

 03 Track03.flac

34.15 MB

 04 Track04.flac

44.01 MB

 05 Track05.flac

23.86 MB

 06 Track06.flac

28.32 MB

 07 Track07.flac

75.46 MB

 E&JW- cd230.jpg

272.23 KB

 E&JW- fronte234.jpg

1.56 MB

 E&JW- interno235.jpg

1.30 MB

 E&JW- interno236.jpg

1.64 MB

 E&JW- interno237.jpg

1.99 MB

 E&JW- interno238.jpg

1.34 MB

 E&JW- interno239.jpg

1.39 MB

 E&JW- retro interno232.jpg

706.59 KB

 E&JW- retro231.jpg

1.09 MB

 EDGAR & JOHNNY WINTER - Together (remaster 2007) (1976) [Eac Flac].ffp

0.44 KB

 Edgar & Johnny Winter.txt

0.55 KB

 Unknown Artist - Unknown Title.log

3.71 KB

 Unknown Artist - Unknown Title.m3u

0.38 KB

 Unknown Title.cue

0.94 KB
 

tracker

leech seeds
 

Torrent description

"EDGAR & JOHNNY WINTER - Together (Remaster 2007) (1976) [Eac Flac]"








Titolo: EDGAR & JOHNNY WINTER - Together (1976)
Etichetta: Sony BMG
Genere: Rock
Formato: Flac Level 8
Copertine: sì (scansioni originali)
Fonte: CD originale
Edizione: BGO Records Remaster 2007 - Made in Great Britain


Codice:
Exact Audio Copy V0.99 prebeta 3 from 28. July 2007

EAC extraction logfile from 1. May 2008, 19:24

Unknown Artist / Unknown Title

Used drive : PLEXTOR DVDR PX-800A Adapter: 1 ID: 0

Read mode : Secure
Utilize accurate stream : Yes
Defeat audio cache : Yes
Make use of C2 pointers : No

Read offset correction : 48
Overread into Lead-In and Lead-Out : No
Fill up missing offset samples with silence : Yes
Delete leading and trailing silent blocks : No
Null samples used in CRC calculations : No
Used interface : Installed external ASPI interface
Gap handling : Appended to previous track

Used output format : Internal WAV Routines
Sample format : 44.100 Hz; 16 Bit; Stereo


TOC of the extracted CD

Track | Start | Length | Start sector | End sector
---------------------------------------------------------
1 | 0:00.00 | 3:55.47 | 0 | 17671
2 | 3:55.47 | 3:03.35 | 17672 | 31431
3 | 6:59.07 | 5:19.44 | 31432 | 55400
4 | 12:18.51 | 6:16.44 | 55401 | 83644
5 | 18:35.20 | 3:31.49 | 83645 | 99518
6 | 22:06.69 | 4:09.33 | 99519 | 118226
7 | 26:16.27 | 11:09.42 | 118227 | 168443


Track 1

Filename C:\Documents and Settings\Stefano\Desktop\EDGAR & JOHNNY WINTER - Together (remaster 2007) (1976) [Eac Flac]\01 Track01.wav

Pre-gap length 0:00:02.00

Peak level 100.0 %
Track quality 100.0 %
Test CRC 5DCE5C9B
Copy CRC 5DCE5C9B
Track not present in AccurateRip database
Copy OK

Track 2

Filename C:\Documents and Settings\Stefano\Desktop\EDGAR & JOHNNY WINTER - Together (remaster 2007) (1976) [Eac Flac]\02 Track02.wav

Peak level 100.0 %
Track quality 100.0 %
Test CRC EE377506
Copy CRC EE377506
Track not present in AccurateRip database
Copy OK

Track 3

Filename C:\Documents and Settings\Stefano\Desktop\EDGAR & JOHNNY WINTER - Together (remaster 2007) (1976) [Eac Flac]\03 Track03.wav

Peak level 100.0 %
Track quality 100.0 %
Test CRC B3619B11
Copy CRC B3619B11
Track not present in AccurateRip database
Copy OK

Track 4

Filename C:\Documents and Settings\Stefano\Desktop\EDGAR & JOHNNY WINTER - Together (remaster 2007) (1976) [Eac Flac]\04 Track04.wav

Peak level 100.0 %
Track quality 100.0 %
Test CRC 70DB73AB
Copy CRC 70DB73AB
Track not present in AccurateRip database
Copy OK

Track 5

Filename C:\Documents and Settings\Stefano\Desktop\EDGAR & JOHNNY WINTER - Together (remaster 2007) (1976) [Eac Flac]\05 Track05.wav

Peak level 100.0 %
Track quality 100.0 %
Test CRC 099D69CD
Copy CRC 099D69CD
Track not present in AccurateRip database
Copy OK

Track 6

Filename C:\Documents and Settings\Stefano\Desktop\EDGAR & JOHNNY WINTER - Together (remaster 2007) (1976) [Eac Flac]\06 Track06.wav

Peak level 100.0 %
Track quality 100.0 %
Test CRC 83011F75
Copy CRC 83011F75
Track not present in AccurateRip database
Copy OK

Track 7

Filename C:\Documents and Settings\Stefano\Desktop\EDGAR & JOHNNY WINTER - Together (remaster 2007) (1976) [Eac Flac]\07 Track07.wav

Peak level 100.0 %
Track quality 100.0 %
Test CRC C88470F8
Copy CRC C88470F8
Track not present in AccurateRip database
Copy OK


None of the tracks are present in the AccurateRip database

No errors occurred

End of status report





01.Harlem shuffle
02.Soul man
03.You've lost that lovin' feelin'
04.Rock and roll medley
05.Let the good time roll
06.Mercy Mercy
07.Baby, watcha want me to do






I fratelli albini EDGAR e JOHNNY WINTER sono musicisti rock (e blues) americani che ebbero il loro periodo di gloria nel primo lustro degli anni 70. JOHNNY, chitarrista extraordinarie, infilò una serie di 4/5 album da brividi tra il 1970 e il 1975, miscelando hard rock, blues e rock and roll.
EDGAR fece più o meno lo stesso dapprima con i suoi WHITE TRASH e poi con L’EDGAR WINTER GROUP. Nel 1975 le due band fecero qualche data insieme, date che prevedevano una sorta di jam session finale dove tutti i membri dei due gruppi erano presenti sul palco.
Questo TOGETHER è stato costruito su quelle registrazioni e contiene vibranti versioni di classici del rock and, R&B e Soul presentati in maniera elettrica e decisa. Il ROCK AND ROLL MEDLEY contiene 9 assaggi di strepitosi brani di rock and roll cuciti insieme con maestria .
TOGETHER, per molti anni fuori catalogo, è stato ristampato e rimasterizzato l’anno scorso dalla BGO. Per il sottoscritto, fan da sempre dei fratelli in questione, questo è un live riuscitissimo e da avere.
(note di nonantolaslim maggio 08)

related torrents

Torrent name

health leech seeds Size
 

comments (0)

Main Menu