Classic

Turina & Granados Piano Trios Beaux Arts Trio

  • Download 5x Faster
  • Download torrent
  • Direct Download
  • Rate this torrent +  |  -
Turina & Granados Piano Trios Beaux Arts Trio

Anonymous and Free Direct Download 300GB+


Torrent info

Name:Turina & Granados Piano Trios Beaux Arts Trio

Total Size: 463.90 MB

Magnet: Magnet Link

Seeds: 0

Leechers: 0

Stream: Watch Online @ Movie4u

Last Updated: 2011-09-16 18:30:15 (Update Now)

Torrent added: 2008-08-25 16:02:05



VPN For Torrents

Torrent Files List


CDImage (flac).cue (Size: 463.90 MB) (Files: 18)

 CDImage (flac).cue

2.66 KB

 CDImage (wav).cue

2.66 KB

 CDImage.flac

316.79 MB

 EAC.log

2.79 KB

 Read me.txt

0.39 KB

 Scans

  Booklet 001.png

16.03 MB

  Booklet 002.png

11.35 MB

  Booklet 003.png

10.65 MB

  Booklet 004.png

12.06 MB

  Booklet 005.png

12.61 MB

  Booklet 006.png

12.88 MB

  Booklet 007.png

12.33 MB

  Booklet 008.png

12.16 MB

  Booklet 009.png

12.13 MB

  Booklet 010.png

12.08 MB

  Disc.png

10.17 MB

  Tray.png

12.66 MB

 Torrent downloaded from Demonoid.com.txt

0.05 KB
 

Announce URL:

Torrent description

JOAQUÍN TURINA (1882-1949)

Piano Trio No 1, Op. 35
1. Prélude et fugue
2. Thème et variations
3. Sonate

Piano Trio No. 2 in B minor, Op. 76
4. Lento - Allegro molto moderato
5. Molto vivace
6. Lento - Andante mosso - Allegretto

Círculo... Fantasia for piano, violin and cello Op. 91
7. Amanecer (Ochtendgloren)
8. Mediodía (Middag)
9. Crepúsculo (Schemering)

ENRIQUE GRANADOS (1867-1916)
Piano Trio Op. 50
10. Poco allegro con espressione
11. Scherzetto: Vivace molto
12. Duetto: Andante con molto espressione
13. Finale: Allegro molto

BEAUX ARTS TRIO
Menahem Presler, Piano
Ida Kavafian, Violin
Peter Wiley, Cello

Exact Audio Copy V0.99 prebeta 4 from 23. January 2008

EAC extraction logfile from 20. August 2008, 14:00

Beaux Arts Trio / Beaux Arts Trio plays Turina and Granados

Used drive : HL-DT-STDVD-ROM GDR8163B Adapter: 1 ID: 1

Read mode : Secure
Utilize accurate stream : Yes
Defeat audio cache : Yes
Make use of C2 pointers : No

Read offset correction : 102
Overread into Lead-In and Lead-Out : No
Fill up missing offset samples with silence : Yes
Delete leading and trailing silent blocks : No
Null samples used in CRC calculations : Yes
Used interface : Installed external ASPI interface

Used output format : Internal WAV Routines
Sample format : 44.100 Hz; 16 Bit; Stereo


TOC of the extracted CD

Track | Start | Length | Start sector | End sector
---------------------------------------------------------
1 | 0:00.32 | 6:46.38 | 32 | 30519
2 | 6:46.70 | 8:11.37 | 30520 | 67381
3 | 14:58.32 | 6:44.00 | 67382 | 97681
4 | 21:42.32 | 6:48.00 | 97682 | 128281
5 | 28:30.32 | 2:49.00 | 128282 | 140956
6 | 31:19.32 | 5:27.38 | 140957 | 165519
7 | 36:46.70 | 4:11.00 | 165520 | 184344
8 | 40:57.70 | 2:27.32 | 184345 | 195401
9 | 43:25.27 | 4:11.05 | 195402 | 214231
10 | 47:36.32 | 9:13.38 | 214232 | 255744
11 | 56:49.70 | 4:18.37 | 255745 | 275131
12 | 61:08.32 | 5:04.38 | 275132 | 297969
13 | 66:12.70 | 6:51.37 | 297970 | 328831


Range status and errors

Selected range

Filename D:\Classical\Turina & Granados Piano trios - Beaux Arts Trio\CDImage.wav

Peak level 100.0 %
Range quality 100.0 %
Test CRC ACBF9511
Copy CRC ACBF9511
Copy OK

No errors occurred


AccurateRip summary

Track 1 accurately ripped (confidence 1) [3FD2DB38]
Track 2 accurately ripped (confidence 1) [AA118F0A]
Track 3 accurately ripped (confidence 1) [471CADF1]
Track 4 accurately ripped (confidence 1) [1F8DE428]
Track 5 accurately ripped (confidence 1) [4C22DBDC]
Track 6 accurately ripped (confidence 1) [BDFB0365]
Track 7 accurately ripped (confidence 1) [13B42C66]
Track 8 accurately ripped (confidence 1) [B59E6824]
Track 9 accurately ripped (confidence 1) [B3C7733A]
Track 10 accurately ripped (confidence 1) [8125B602]
Track 11 accurately ripped (confidence 1) [6DEB7A24]
Track 12 accurately ripped (confidence 1) [F54994B2]
Track 13 accurately ripped (confidence 1) [3720A275]

All tracks accurately ripped

End of status report

related torrents

Torrent name

health leech seeds Size
 


comments (0)

Main Menu