TV - Other

Emmerdale (3rd June 2008) [PDTV (Xvid)] supreme speeds com

  • Download 5x Faster
  • Download torrent
  • Direct Download
  • Rate this torrent +  |  -
Emmerdale (3rd June 2008) [PDTV (Xvid)] supreme speeds com

Free and Direct Download with Usenet 300GB+ free


Torrent info

Name:Emmerdale (3rd June 2008) [PDTV (Xvid)] supreme speeds com

Total Size: 349.60 MB

Magnet: Magnet Link

Seeds: 0

Leechers: 0

Stream: Watch Online @ Movie4u

Last Updated: 2010-07-28 00:38:43 (Update Now)

Torrent added: 2009-09-10 07:27:37




Torrent Files List


Emmerdale (3rd June 2008) [PDTV (Xvid)].avi (Size: 349.60 MB) (Files: 2)

 Emmerdale (3rd June 2008) [PDTV (Xvid)].avi

349.60 MB

 Emmerdale (3rd June 2008) [PDTV (Xvid)].nfo

2.45 KB
 

Announce URL: http://supreme-speeds.com/announce.php?passkey=tssespecialtorrentv1byxamsep2007

Torrent description

Emmerdale (3rd June 2008) [PDTV (Xvid)].avi

website:-
http://www.itv.com/Soaps/emmerdale/default.html

Emmerdale (Soap)
Time - 19:00 - 20:00 (1 hour long)
When - Tuesday 3rd June on ITV1 London
What Price Love?.
Eli kidnaps Val and tries to hold Pollard to ransom. Against the odds, Val and Pollard tie the knot. Marlon impresses the Pub of the Year judges.
(Stereo, Widescreen, Subtitles, Audio Described)


Video info:-

Complete name : Emmerdale (3rd June 2008) [PDTV (Xvid)].avi
Format : AVI
Format/Info : Audio Video Interleave
File size : 350 MiB
Duration : 45mn 51s
Overal bit rate : 1066 Kbps
Writing application : VirtualDubMod 1.5.4.1 (build 2178/release)
Writing library : VirtualDubMod build 2178/release

Video
Format : MPEG-4 Visual
Format profile : Streaming [email protected]
Format settings, BVOP : Yes
Format settings, QPel : No
Format settings, GMC : 0 warppoint
Format settings, Matrix : Custom
Codec ID : XVID
Codec ID/Hint : XviD
Duration : 45mn 51s
Bit rate : 931 Kbps
Width : 640 pixels
Height : 368 pixels
Display aspect ratio : 16/9
frame rate : 25.000 fps
Resolution : 8 bits
Colorimetry : 4:2:0
Scan type : Progressive
Bits/(Pixel*frame) : 0.158
Stream size : 305 MiB
Writing library : XviD 1.2.-127(dev)
Writing library/Date : UTC 2006-11-01

Audio
Format : MPEG Audio
Format version : Version 1 / Layer 3
Codec ID : 55
Codec ID/Hint : MP3
Duration : 45mn 51s
Bit rate mode : CBR
Bit rate : 128 Kbps
Minimum bit rate : 128 Kbps
Channel(s) : 2 channels
Sampling rate : 48.0 KHz
Resolution : 16 bits
Stream size : 42.0 MiB
Writing library : LAME3.97
Encoding settings : CBR

related torrents

Torrent name

health leech seeds Size
 

comments (0)

Main Menu