Action

Blade [mnvv2 ws]

  • Download 5x Faster
  • Download torrent
  • Direct Download
  • Rate this torrent +  |  -
Blade [mnvv2 ws]

Anonymous and Free Direct Download 300GB+


Torrent info

Name:Blade [mnvv2 ws]

Total Size: 1.37 GB

Magnet: Magnet Link

Seeds: 0

Leechers: 0

Stream: Watch Online @ Movie4u

Last Updated: 2009-11-23 23:10:17 (Update Now)

Torrent added: 2009-09-10 07:05:47



VPN For Torrents

Torrent Files List


Blade.avi (Size: 1.37 GB) (Files: 3)

 Blade.avi

1.37 GB

 Blade.nfo

2.12 KB

 thumb-blade.jpg

3.48 KB
 

Announce URL: http://mnvv2.ws/announce.php

Torrent description

please register at mnvv2.ws

Nacht für Nacht tobt in Los Angeles ein Krieg, in dessen Mittelpunkt ein unerschrockener Kämpfer steht: Blade!
In der Nacht seiner Geburt wurde seine Mutter von Vampiren umgebracht.
Der Beginn eines einzigartigen Schiksals: Blade ist halb Mensch, halb Vampir. Er kämpft mit der Stärke beider Welten und hat keine ihrer Schwächen...


Format : AVI
Format/Info : Audio Video Interleave
Dateigre : 1.37 GiB
Duration : 1h 55min
Gesamte Bitrate : 1698 Kbps
Verwendetes Programm : VirtualDubMod 1.5.4.1 (build 2178/release)
verwendete Encoder-Bibliothek : VirtualDubMod build 2178/release
IAS1 : Deutsch

Video
Format : MPEG-4 Visual
Format profile : Streaming [email protected]
Format settings, BVOP : Ja
Format settings, QPel : Nein
Format settings, GMC : No warpoints
Format settings, Matrix : Custom
Codec ID : XVID
Codec ID/Hint : XviD
Duration : 1h 55min
Bitrate : 1243 Kbps
Breite : 640 Pixel
Höhe : 272 Pixel
Bildseitenverhältnis : 2.35
Bildwiederholungsrate : 25.000 FPS
Auflösung : 8 bits
Colorimetry : 4:2:0
Scan type : Progressive
Bits/(Pixel*Frame) : 0.286
Stream size : 1.00 GiB
verwendete Encoder-Bibliothek : XviD 1.2.0.dev47 (UTC 2006-11-01)

Audio
Format : AC-3
Format/Info : Audio Coding 3
Codec ID : 2000
Duration : 1h 55min
Bitraten-Modus : Constant
Bitrate : 448 Kbps
Kanäle : 6 Kanäle
Channel positions : Front: L C R, Rear: L R, LFE
Samplingrate : 48.0 KHz
Stream size : 369 MiB

related torrents

Torrent name

health leech seeds Size
 


comments (0)

Main Menu