Rock

EDOARDO BENNATO Burattino Senza Fili (1977)[eac flac][colombo bt org]

  • Download 5x Faster
  • Download torrent
  • Direct Download
  • Rate this torrent +  |  -
EDOARDO BENNATO Burattino Senza Fili (1977)[eac flac][colombo bt org]

Free and Direct Download with Usenet.nl 300GB+ free


Torrent info

Name:EDOARDO BENNATO Burattino Senza Fili (1977)[eac flac][colombo bt org]

Total Size: 236.12 MB

Magnet: Magnet Link

Seeds: 0

Leechers: 0

Stream: Watch Online @ Movie4u

Last Updated: 2015-07-10 19:32:26 (Update Now)

Torrent added: 2009-09-10 06:59:46





Torrent Files List


Burattino senza fili.cue (Size: 236.12 MB) (Files: 22)

 Burattino senza fili.cue

1.44 KB

 copertina - artwork

  bennato 386.jpg

218.51 KB

  bennato 387.jpg

501.19 KB

  bennato 388.jpg

881.74 KB

  bennato 390.jpg

1.23 MB

  bennato 392.jpg

1.05 MB

  bennato 393.jpg

821.56 KB

  bennato 394.jpg

1.21 MB

  bennato 395.jpg

1.40 MB

 E. Bennato burattino.txt

0.55 KB

 EDOARDO BENNATO - Burattino Senza Fili (1977) [eac flac].ffp

0.64 KB

 Edoardo Bennato - Burattino senza fili.log

4.46 KB

 Edoardo Bennato - Burattino senza fili.m3u

0.70 KB

 flac

  01 È stata tua la colpa.flac

34.56 MB

  02 Mangiafuoco.flac

31.28 MB

  03 La Fata.flac

26.25 MB

  04 In prigione.flac

32.98 MB

  05 Dotti, medici e sapienti.flac

19.84 MB

  06 Tu grillo parlante.flac

26.30 MB

  07 Il Gatto e la Volpe.flac

20.56 MB

  08 Quando sarai grande.flac

27.44 MB

  09 Dotti, medici e sapienti (reprise).flac

9.67 MB
 

tracker

leech seeds
 

Torrent description

EDOARDO BENNATO   Burattino Senza Fili (1977)[eac flac][colombo bt org] preview 0

[color=blue][size=18pt]\"EDOARDO BENNATO - Burattino Senza Fili(1977 )[Eac Flac]\"[/size][/color]

EDOARDO BENNATO   Burattino Senza Fili (1977)[eac flac][colombo bt org] preview 1

[color=blue][font=Verdana]TITOLO: EDOARDO BENNATO - Burattino Senza Fili
ANNO: 1977
ETICHETTA: BMG Ricordi
GENERE: Cantautore Italiano / Rock
FORMATO: Flac Level 8
COPERTINE: sì (scansioni originali)
FONTE: CD originale
EDIZIONE: BMG Ricordi 1996
[/font][/color]

[code]Exact Audio Copy V0.99 prebeta 3 from 28. July 2007

EAC extraction logfile from 10. June 2008, 11:33

Edoardo Bennato / Burattino senza fili

Used drive : PLEXTOR DVDR PX-800A Adapter: 1 ID: 0

Read mode : Secure
Utilize accurate stream : Yes
Defeat audio cache : Yes
Make use of C2 pointers : No

Read offset correction : 48
Overread into Lead-In and Lead-Out : No
Fill up missing offset samples with silence : Yes
Delete leading and trailing silent blocks : No
Null samples used in CRC calculations : No
Used interface : Installed external ASPI interface
Gap handling : Appended to previous track

Used output format : Internal WAV Routines
Sample format : 44.100 Hz; 16 Bit; Stereo


TOC of the extracted CD

Track | Start | Length | Start sector | End sector
---------------------------------------------------------
1 | 0:00.33 | 5:14.65 | 33 | 23647
2 | 5:15.23 | 4:53.42 | 23648 | 45664
3 | 10:08.65 | 4:07.15 | 45665 | 64204
4 | 14:16.05 | 4:42.30 | 64205 | 85384
5 | 18:58.35 | 3:22.40 | 85385 | 100574
6 | 22:21.00 | 4:02.03 | 100575 | 118727
7 | 26:23.03 | 2:59.42 | 118728 | 132194
8 | 29:22.45 | 4:47.10 | 132195 | 153729
9 | 34:09.55 | 1:45.08 | 153730 | 161612


Track 1

Filename C:\\Documents and Settings\\Stefano\\Desktop\\EDOARDO BENNATO - Burattino Senza Fili (1977) [eac flac]\\01 È stata tua la colpa.wav

Pre-gap length 0:00:02.33

Peak level 99.2 %
Track quality 99.8 %
Test CRC D9975899
Copy CRC D9975899
Track not present in AccurateRip database
Copy OK

Track 2

Filename C:\\Documents and Settings\\Stefano\\Desktop\\EDOARDO BENNATO - Burattino Senza Fili (1977) [eac flac]\\02 Mangiafuoco.wav

Peak level 96.0 %
Track quality 100.0 %
Test CRC 161AF131
Copy CRC 161AF131
Track not present in AccurateRip database
Copy OK

Track 3

Filename C:\\Documents and Settings\\Stefano\\Desktop\\EDOARDO BENNATO - Burattino Senza Fili (1977) [eac flac]\\03 La Fata.wav

Peak level 96.4 %
Track quality 100.0 %
Test CRC 4C5164F5
Copy CRC 4C5164F5
Track not present in AccurateRip database
Copy OK

Track 4

Filename C:\\Documents and Settings\\Stefano\\Desktop\\EDOARDO BENNATO - Burattino Senza Fili (1977) [eac flac]\\04 In prigione.wav

Peak level 100.0 %
Track quality 100.0 %
Test CRC 80C99A52
Copy CRC 80C99A52
Track not present in AccurateRip database
Copy OK

Track 5

Filename C:\\Documents and Settings\\Stefano\\Desktop\\EDOARDO BENNATO - Burattino Senza Fili (1977) [eac flac]\\05 Dotti, medici e sapienti.wav

Peak level 97.9 %
Track quality 100.0 %
Test CRC 18E34DF1
Copy CRC 18E34DF1
Track not present in AccurateRip database
Copy OK

Track 6

Filename C:\\Documents and Settings\\Stefano\\Desktop\\EDOARDO BENNATO - Burattino Senza Fili (1977) [eac flac]\\06 Tu grillo parlante.wav

Peak level 100.0 %
Track quality 100.0 %
Test CRC 51EC2CF8
Copy CRC 51EC2CF8
Track not present in AccurateRip database
Copy OK

Track 7

Filename C:\\Documents and Settings\\Stefano\\Desktop\\EDOARDO BENNATO - Burattino Senza Fili (1977) [eac flac]\\07 Il Gatto e la Volpe.wav

Peak level 96.5 %
Track quality 100.0 %
Test CRC B07D1D2D
Copy CRC B07D1D2D
Track not present in AccurateRip database
Copy OK

Track 8

Filename C:\\Documents and Settings\\Stefano\\Desktop\\EDOARDO BENNATO - Burattino Senza Fili (1977) [eac flac]\\08 Quando sarai grande.wav

Peak level 94.9 %
Track quality 100.0 %
Test CRC 358218DE
Copy CRC 358218DE
Track not present in AccurateRip database
Copy OK

Track 9

Filename C:\\Documents and Settings\\Stefano\\Desktop\\EDOARDO BENNATO - Burattino Senza Fili (1977) [eac flac]\\09 Dotti, medici e sapienti (reprise).wav

Peak level 97.4 %
Track quality 100.0 %
Test CRC F0EBB298
Copy CRC F0EBB298
Track not present in AccurateRip database
Copy OK


None of the tracks are present in the AccurateRip database

No errors occurred

End of status report
[/code]

EDOARDO BENNATO   Burattino Senza Fili (1977)[eac flac][colombo bt org] preview 2

[color=blue]01.è stata tua la colpa
02.mangiafuoco
03.la fata
04.in prigione in prigione
05.dotti medici e sapienti
06.tu grillo parlante
07.il gatto e la volpe
08.quando sarai grande
[/color]

EDOARDO BENNATO   Burattino Senza Fili (1977)[eac flac][colombo bt org] preview 3

EDOARDO BENNATO   Burattino Senza Fili (1977)[eac flac][colombo bt org] preview 4

[font=Verdana]
Negli anni settanta, oltre ad ascoltare dischi di musica rock (spesso di artisti internazionali), era d’obbligo farsi ammaliare dai lavori dei cantautori italiani, cantanti che cantavano appunto le loro canzoni. Figure quasi sempre impegnate, alle prese con musiche piuttosto semplici accompagnate da testi profondi, graffianti, che affrontavano tematiche sociali o comunque scomode. Alcuni facevano il verso a Bob Dylan e a quel tipo di personaggi, altri viravano verso lidi più rock.
Qualche nome:FRANCESCO GUCCINI, FRANCESCO DE GREGORI, IVAN GRAZIANI, PIERO MARRAS, ANTONELLO VENDITTI, EUGENIO FINARDI, (persino il primo) VASCO ROSSI e appunto EDOARDO BENNATO.

Verso la fine del decennio in questione, BENNATO ebbe qualche anno di popolarità altissima (riempiva lo stadio di San Siro, all’epoca ancora senza il terzo anello) sostanzialmente grazie a due album davvero molto belli: BURATTINO SENZA FILI (1977) e SONO SOLO CANZONETTE (1980).
Due concept album basati rispettivamente su Pinocchio e Peter Pan; Bennato prende spunto da queste due favole per analizzare il tempo in cui vive, disegnando feroci e graffianti critiche.
Due album bellissimi, pieni di ottime canzoni, alcune a tinte rock.

L’ormai superclassico IL GATTO E LA VOLPE, il blues di TU GRILLO PARLANTE, il rock di IN PRIGIONE IN PRIGIONE, l’intima bellezza di E’ STATA TUA LA COLPA e LA FATA.

L’altro superclassico SONO SOLO CANZONETTE, il rock di IL ROCK DI CAPITAN UNCINO, l’irresistibile musical swing di DOPO IL LICEO CHE POTEVO FAR, la dolcezza incantata di L’ISOLA CHE NON C’E’ e NEL COVO DEI PIRATI.

Oggi album così belli ce li sogniamo.

(note di nonantolaslim giugno 08)
[/font]

EDOARDO BENNATO   Burattino Senza Fili (1977)[eac flac][colombo bt org] preview 5

related torrents

Torrent name

health leech seeds Size
 

comments (0)

Main Menu