Rock

EDOARDO BENNATO Sono Solo Canzonette (1980)(2001 Remaster) [eac flac][colombo bt org]

  • Download 5x Faster
  • Download torrent
  • Direct Download
  • Rate this torrent +  |  -

Torrent info

Name:EDOARDO BENNATO Sono Solo Canzonette (1980)(2001 Remaster) [eac flac][colombo bt org]

Total Size: 243.53 MB

Magnet: Magnet Link

Seeds: 4

Leechers: 3

Stream: Watch Online @ Movie4u

Last Updated: 0000-00-00 00:00:00 (Update Now)

Torrent added: 2009-09-10 06:59:05




Torrent Files List


copertine artwork (Size: 243.53 MB) (Files: 18)

 copertine artwork

  bennato 396.jpg

263.36 KB

  bennato 397.jpg

693.57 KB

  bennato 398 A littlemonkey.jpg

1.06 MB

  bennato 398.jpg

1.78 MB

  Bennato B littlemonkey.jpg

924.68 KB

 E.Bennato sono solo canzonette.txt

0.55 KB

 EDOARDO BENNATO - Sono Solo Canzonette (1980 - Remaster 2001)[eac flac].ffp

0.60 KB

 Edoardo Bennato - Sono solo canzonette.log

4.47 KB

 Edoardo Bennato - Sono solo canzonette.m3u

0.66 KB

 Flac

  01 Ma che sarà....flac

30.72 MB

  02 Il rock di Capitan Uncino.flac

36.48 MB

  03 Nel covo dei pirati.flac

28.56 MB

  04 Dopo il liceo che potevo far.flac

17.36 MB

  05 L'isola che non c'è.flac

24.64 MB

  06 Rockoccodrillo.flac

42.15 MB

  07 Tutti insieme lo denunciam.flac

27.15 MB

  08 Sono solo canzonette.flac

31.78 MB

 Sono solo canzonette.cue

1.48 KB
 

Announce URL: http://tracker.openbittorrent.com/announce

Torrent description

EDOARDO BENNATO   Sono Solo Canzonette (1980)(2001 Remaster) [eac flac][colombo bt org] preview 0

[color=blue][size=18pt]\"EDOARDO BENNATO - Sono Solo Canzonette (1980 )(Reamaster 2001)[Eac Flac]\"[/size][/color]

EDOARDO BENNATO   Sono Solo Canzonette (1980)(2001 Remaster) [eac flac][colombo bt org] preview 1

[color=blue][font=Verdana]TITOLO: EDOARDO BENNATO - Sono Solo Canzonette
ANNO: 1980
ETICHETTA: BMG Ricordi
GENERE: Cantautore Italiano / Rock
FORMATO: Flac Level 8
COPERTINE: sì (scansioni originali)
FONTE: CD originale
EDIZIONE: BMG Ricordi Remaster 2001
[/font][/color]

[code]Exact Audio Copy V0.99 prebeta 3 from 28. July 2007

EAC extraction logfile from 10. June 2008, 14:34

Edoardo Bennato / Sono solo canzonette

Used drive : PLEXTOR DVDR PX-800A Adapter: 1 ID: 0

Read mode : Secure
Utilize accurate stream : Yes
Defeat audio cache : Yes
Make use of C2 pointers : No

Read offset correction : 48
Overread into Lead-In and Lead-Out : Yes
Fill up missing offset samples with silence : Yes
Delete leading and trailing silent blocks : No
Null samples used in CRC calculations : Yes
Used interface : Installed external ASPI interface
Gap handling : Appended to previous track

Used output format : Internal WAV Routines
Sample format : 44.100 Hz; 16 Bit; Stereo


TOC of the extracted CD

Track | Start | Length | Start sector | End sector
---------------------------------------------------------
1 | 0:00.00 | 4:40.06 | 0 | 21005
2 | 4:40.06 | 5:38.19 | 21006 | 46374
3 | 10:18.25 | 5:19.03 | 46375 | 70302
4 | 15:37.28 | 2:52.36 | 70303 | 83238
5 | 18:29.64 | 4:04.10 | 83239 | 101548
6 | 22:33.74 | 6:18.27 | 101549 | 129925
7 | 28:52.26 | 4:58.54 | 129926 | 152329
8 | 33:51.05 | 5:03.60 | 152330 | 175114


Track 1

Filename C:\\Documents and Settings\\Stefano\\Desktop\\EDOARDO BENNATO - Sono Solo Canzonette (1980 - Remaster 2001)[eac flac]\\01 Ma che sarà....wav

Pre-gap length 0:00:02.00

Peak level 99.8 %
Track quality 100.0 %
Test CRC 152A7523
Copy CRC 152A7523
Track not present in AccurateRip database
Copy OK

Track 2

Filename C:\\Documents and Settings\\Stefano\\Desktop\\EDOARDO BENNATO - Sono Solo Canzonette (1980 - Remaster 2001)[eac flac]\\02 Il rock di Capitan Uncino.wav

Pre-gap length 0:00:03.33

Peak level 98.9 %
Track quality 100.0 %
Test CRC B0C6931A
Copy CRC B0C6931A
Track not present in AccurateRip database
Copy OK

Track 3

Filename C:\\Documents and Settings\\Stefano\\Desktop\\EDOARDO BENNATO - Sono Solo Canzonette (1980 - Remaster 2001)[eac flac]\\03 Nel covo dei pirati.wav

Pre-gap length 0:00:04.07

Peak level 98.7 %
Track quality 100.0 %
Test CRC FE3465C5
Copy CRC FE3465C5
Track not present in AccurateRip database
Copy OK

Track 4

Filename C:\\Documents and Settings\\Stefano\\Desktop\\EDOARDO BENNATO - Sono Solo Canzonette (1980 - Remaster 2001)[eac flac]\\04 Dopo il liceo che potevo far.wav

Pre-gap length 0:00:03.14

Peak level 98.7 %
Track quality 100.0 %
Test CRC AFA08F54
Copy CRC 55878638
Track not present in AccurateRip database
Copy OK

Track 5

Filename C:\\Documents and Settings\\Stefano\\Desktop\\EDOARDO BENNATO - Sono Solo Canzonette (1980 - Remaster 2001)[eac flac]\\05 L\'isola che non c\'è.wav

Pre-gap length 0:00:01.57

Peak level 98.8 %
Track quality 100.0 %
Test CRC E3866A8A
Copy CRC E3866A8A
Track not present in AccurateRip database
Copy OK

Track 6

Filename C:\\Documents and Settings\\Stefano\\Desktop\\EDOARDO BENNATO - Sono Solo Canzonette (1980 - Remaster 2001)[eac flac]\\06 Rockoccodrillo.wav

Pre-gap length 0:00:03.47

Peak level 99.3 %
Track quality 100.0 %
Test CRC AA28D72F
Copy CRC 0551776E
Track not present in AccurateRip database
Copy OK

Track 7

Filename C:\\Documents and Settings\\Stefano\\Desktop\\EDOARDO BENNATO - Sono Solo Canzonette (1980 - Remaster 2001)[eac flac]\\07 Tutti insieme lo denunciam.wav

Pre-gap length 0:00:03.37

Peak level 98.8 %
Track quality 100.0 %
Test CRC C076D445
Copy CRC C076D445
Track not present in AccurateRip database
Copy OK

Track 8

Filename C:\\Documents and Settings\\Stefano\\Desktop\\EDOARDO BENNATO - Sono Solo Canzonette (1980 - Remaster 2001)[eac flac]\\08 Sono solo canzonette.wav

Pre-gap length 0:00:04.59

Peak level 98.8 %
Track quality 100.0 %
Test CRC 5E41A79F
Copy CRC 5E41A79F
Track not present in AccurateRip database
Copy OK


None of the tracks are present in the AccurateRip database

No errors occurred

End of status report
[/code]

EDOARDO BENNATO   Sono Solo Canzonette (1980)(2001 Remaster) [eac flac][colombo bt org] preview 2

[color=blue]01.ma che sarà
02.il rock di capitan uncino
03.nel covo dei pirati
04.dopo il liceo che potevo far
05.l\'isola che non c\'è
06.rockoccodrillo
07.tutti insiem lo denunciam
08.sono solo canzonette
[/color]

EDOARDO BENNATO   Sono Solo Canzonette (1980)(2001 Remaster) [eac flac][colombo bt org] preview 3

EDOARDO BENNATO   Sono Solo Canzonette (1980)(2001 Remaster) [eac flac][colombo bt org] preview 4

[font=Verdana]
Negli anni settanta, oltre ad ascoltare dischi di musica rock (spesso di artisti internazionali), era d’obbligo farsi ammaliare dai lavori dei cantautori italiani, cantanti che cantavano appunto le loro canzoni. Figure quasi sempre impegnate, alle prese con musiche piuttosto semplici accompagnate da testi profondi, graffianti, che affrontavano tematiche sociali o comunque scomode. Alcuni facevano il verso a Bob Dylan e a quel tipo di personaggi, altri viravano verso lidi più rock.
Qualche nome:FRANCESCO GUCCINI, FRANCESCO DE GREGORI, IVAN GRAZIANI, PIERO MARRAS, ANTONELLO VENDITTI, EUGENIO FINARDI, (persino il primo) VASCO ROSSI e appunto EDOARDO BENNATO.

Verso la fine del decennio in questione, BENNATO ebbe qualche anno di popolarità altissima (riempiva lo stadio di San Siro, all’epoca ancora senza il terzo anello) sostanzialmente grazie a due album davvero molto belli: BURATTINO SENZA FILI (1977) e SONO SOLO CANZONETTE (1980).
Due concept album basati rispettivamente su Pinocchio e Peter Pan; Bennato prende spunto da queste due favole per analizzare il tempo in cui vive, disegnando feroci e graffianti critiche.
Due album bellissimi, pieni di ottime canzoni, alcune a tinte rock.

L’ormai superclassico IL GATTO E LA VOLPE, il blues di TU GRILLO PARLANTE, il rock di IN PRIGIONE IN PRIGIONE, l’intima bellezza di E’ STATA TUA LA COLPA e LA FATA.

L’altro superclassico SONO SOLO CANZONETTE, il rock di IL ROCK DI CAPITAN UNCINO, l’irresistibile musical swing di DOPO IL LICEO CHE POTEVO FAR, la dolcezza incantata di L’ISOLA CHE NON C’E’ e NEL COVO DEI PIRATI.

Oggi album così belli ce li sogniamo.

(recensione di nonantolaslim giugno 08)
[/font]

EDOARDO BENNATO   Sono Solo Canzonette (1980)(2001 Remaster) [eac flac][colombo bt org] preview 5

related torrents

Torrent name

health leech seeds Size
 


comments (0)

Main Menu