Comedy

Mein Fuehrer 2007 XviD avi[mnvv2 ws]

  • Download 5x Faster
  • Download torrent
  • Direct Download
  • Rate this torrent +  |  -
Mein Fuehrer 2007 XviD avi[mnvv2 ws]

Free and Direct Download with Usenet 300GB+ free


Torrent info

Name:Mein Fuehrer 2007 XviD avi[mnvv2 ws]

Total Size: 699.85 MB

Magnet: Magnet Link

Seeds: 0

Leechers: 0

Stream: Watch Online @ Movie4u

Last Updated: 2010-04-22 20:03:20 (Update Now)

Torrent added: 2009-09-10 06:53:55




Torrent Files List


Mein.Fuehrer.2007.XviD.avi (Size: 699.85 MB) (Files: 1)

 Mein.Fuehrer.2007.XviD.avi

699.85 MB
 

Announce URL: http://mnvv2.ws/announce.php

Torrent description

please register at http://mnvv2.ws

Mein.Fuehrer.2007.XviD.avi
Es steht schlecht um das Dritte Reich im Dezember 1944.
Die Alliierten rücken vor, der Krieg droht total verloren zu gehen.
Da weiß Propagandaminister Joseph Goebbels (Sylvester Groth) die Antwort: Adolf Hitler (Helge Schneider) muss am Neujahrstag eine mitreißende Rede halten, um die Massen nochmal zu begeistern.
Dumm nur, dass der deprimierte Führer nicht an die Öffentlichkeit treten will.
Also wird der Jude Adolf Grünbaum (Ulrich Mühe), sein ehemaliger Schauspiellehrer, aus dem KZ geholt, um den widerspenstigen Gröfaz binnen fünf Tagen in Höchstform zu bringen.

In der Tradition von Ernst Lubitsch (Sein oder Nichtsein) und Charlie Chaplin (Der große Diktator) liefert Dani Levy nach dem Hit Alles auf Zucker! die ultimativ komisch-subversive Antwort auf Der Untergang.

Genre:Komödie
Sprache: Deutsch
Bild: DVD-Screener
Ton: DVD-Rip
Format: AVI
Dateigre: 700 MiB
Duration:1h 31min
Gesamte Bitrate:1070 Kbps

Video
Format:MPEG-4 Visual
Codec: XVID
Bitrate: 920 Kbps
Breite:608 Pixel
Höhe: 320 Pixel
Bildseitenverhältnis: 1.900
Bildwiederholungsrate:25.000 FPS
Auflösung:8 bits
Colorimetry:4:2:0
Scan type: Progressive
Bits/(Pixel*Frame): 0.189
Stream size:602 MiB

Audio
Codec:MP3
Duration: 1h 31min
Bitraten-Modus:Variable
Bitrate:137 Kbps
Minimum bit rate: 32.0 Kbps
Kanäle: 2 Kanäle
Samplingrate:48.0 KHz
Auflösung: 16 bits
Stream size:89.5 MiB

related torrents

Torrent name

health leech seeds Size
 

comments (0)

Main Menu