Action

Crime Is King 3000 Meilen Bis Graceland[mnvv2 ws]

  • Download 5x Faster
  • Download torrent
  • Direct Download
  • Rate this torrent +  |  -
Crime Is King 3000 Meilen Bis Graceland[mnvv2 ws]

Anonymous and Direct Download 300GB+ free


Torrent info

Name:Crime Is King 3000 Meilen Bis Graceland[mnvv2 ws]

Total Size: 1.37 GB

Magnet: Magnet Link

Seeds: 0

Leechers: 0

Stream: Watch Online @ Movie4u

Last Updated: 0000-00-00 00:00:00 (Update Now)

Torrent added: 2009-09-10 06:41:55




Torrent Files List


crime is king.jpg (Size: 1.37 GB) (Files: 3)

 crime is king.jpg

71.71 KB

 Crime.Is.King.3000.Meilen.Bis.Graceland.German.2001.DVDRIP.Xvid.By.Bulli.avi

1.37 GB

 Crime.Is.King.3000.Meilen.Bis.Graceland.German.2001.DVDRIP.Xvid.By.Bulli.nfo

3.17 KB
 

Announce URL: http://mnvv2.ws/announce.php

Torrent description

please register at MNV

Format : AVI
Format/Info : Audio Video Interleave
Dateigre : 1.37 GiB
Duration : 2h 0min
Gesamte Bitrate : 1629 Kbps
Verwendetes Programm : VirtualDubMod 1.5.4.1 (build 2178/release)
verwendete Encoder-Bibliothek : VirtualDubMod build 2178/release
IAS1 : Deutsch

Video
Format : MPEG-4 Visual
Format profile : Streaming [email protected]
Format settings, BVOP : Ja
Format settings, QPel : Nein
Format settings, GMC : No warpoints
Format settings, Matrix : Custom
Codec ID : XVID
Codec ID/Hint : XviD
Duration : 2h 0min
Bitrate : 1499 Kbps
Breite : 704 Pixel
Höhe : 288 Pixel
Bildseitenverhältnis : 2.444
Bildwiederholungsrate : 25.000 FPS
Auflösung : 8 bits
Colorimetry : 4:2:0
Scan type : Progressive
Bits/(Pixel*Frame) : 0.296
Stream size : 1.26 GiB
verwendete Encoder-Bibliothek : XviD 1.2.0.dev47 (UTC 2006-11-01)

Audio
Format : MPEG Audio
Format version : Version 1
Format profile : Layer 3
Codec ID : 55
Codec ID/Hint : MP3
Duration : 2h 0min
Bitraten-Modus : Variable
Bitrate : 117 Kbps
Minimum bit rate : 128 Kbps
Kanäle : 2 Kanäle
Samplingrate : 48.0 KHz
Auflösung : 16 bits
Stream size : 101 MiB
verwendete Encoder-Bibliothek : LAME3.97
Kodierungseinstellungen : ABR

Während der Internationalen Elvis-Woche in Las Vegas
überfallen fünf Elvis-Imitatoren mit Maschinenpistolen
in ihren Gitarrenkoffern das
Riviera-Casinohotel: Den Coup haben sich die Ex-Knackis
Michael Zane (KURT RUSSELL) und Murphy (KEVIN COSTNER) ausgedacht.
Sie sacken 3,2 Millionen Dollar ein, hinterlassen im Hotel ein blutiges
Schlachtfeld und entkommen per Helikopter vom Dach des Hochhauses.
Murphy will die Beute jedoch nicht teilen, er schießt die Komplizen nieder.
Nur Michael überlebt den Mordrausch und flieht mit dem Geld.

Dabei klebt Kellnerin Cybil (COURTENEY COX) wie eine Klette an ihm
nach einer gemeinsamen Liebesnacht träumt sie von einem besseren Leben.
Aber auch Murphy bleibt Michael auf den Fersen, und die Marshals sind hinter beiden her


Regie
DEMIAN LICHTENSTEIN

Drehbuch
RICHARD RECCO und DEMIAN LICHTENSTEIN

Produktion
ELIE SAMAHA
ANDREW STEVENS
DEMIAN LICHTENSTEIN
RICHARD SPERO
ERIC MANES




Executive Producers
DON CARMODY
TRACEE STANLEY

Kamera
DAVID FRANCO

Musik
GEORGE S. CLINTON

Produktionsdesign
ROBERT de VICO


Schnitt
MICHAEL J. DUTHIE und MILOS WRIGHT


MFG Die Xvid Crew

related torrents

Torrent name

health leech seeds Size
 


comments (0)

Main Menu