TV - Other

Emmerdale (16th June 2008) [PDTV (Xvid)] supreme speeds com

  • Download 5x Faster
  • Download torrent
  • Direct Download
  • Rate this torrent +  |  -
Emmerdale (16th June 2008) [PDTV (Xvid)] supreme speeds com

Free and Direct Download with Usenet.nl 300GB+ free


Torrent info

Name:Emmerdale (16th June 2008) [PDTV (Xvid)] supreme speeds com

Total Size: 174.80 MB

Magnet: Magnet Link

Seeds: 0

Leechers: 0

Stream: Watch Online @ Movie4u

Last Updated: 2010-07-28 20:29:22 (Update Now)

Torrent added: 2009-09-10 06:36:15





Torrent Files List


Emmerdale (16th June 2008) [PDTV (Xvid)].avi (Size: 174.80 MB) (Files: 2)

 Emmerdale (16th June 2008) [PDTV (Xvid)].avi

174.80 MB

 Emmerdale (16th June 2008) [PDTV (Xvid)].nfo

2.50 KB
 

Announce URL: http://supreme-speeds.com/announce.php?passkey=tssespecialtorrentv1byxamsep2007

Torrent description

Emmerdale (16th June 2008) [PDTV (Xvid)].avi

website:-
http://www.itv.com/Soaps/emmerdale/default.html

Emmerdale (Soap)
Time - 19:30 - 20:00 (30 minutes long)
When - Monday 16th June on ITV1 London
Jasmine ends her relationship with Miles. Nicola and David continue to hide their true feelings. Viv doubts the competence of her solicitor.
Director: Mark McKillop
Starring: Jenna-Louise Coleman, Ayden Callaghan, Nicola Wheeler, Matthew Wolfenden, Deena Payne, Tony Audenshaw
(Stereo, Widescreen, Subtitles, Audio Described)


Video info:-

Complete name : Emmerdale (16th June 2008) [PDTV (Xvid)].avi
Format : AVI
Format/Info : Audio Video Interleave
File size : 175 MiB
Duration : 21mn 40s
Overal bit rate : 1128 Kbps
Writing application : VirtualDubMod 1.5.4.1 (build 2178/release)
Writing library : VirtualDubMod build 2178/release

Video
Format : MPEG-4 Visual
Format settings, BVOP : No
Format settings, QPel : No
Format settings, GMC : 0 warppoint
Format settings, Matrix : Default
Codec ID : XVID
Codec ID/Hint : XviD
Duration : 21mn 40s
Bit rate : 992 Kbps
Width : 640 pixels
Height : 368 pixels
Display aspect ratio : 16/9
frame rate : 25.000 fps
Resolution : 8 bits
Colorimetry : 4:2:0
Scan type : Progressive
Bits/(Pixel*frame) : 0.169
Stream size : 154 MiB
Writing library : XviD 1.0.1
Writing library/Date : UTC 2004-06-05

Audio
Format : MPEG Audio
Format version : Version 1 / Layer 3
Codec ID : 55
Codec ID/Hint : MP3
Duration : 21mn 40s
Bit rate mode : CBR
Bit rate : 128 Kbps
Minimum bit rate : 128 Kbps
Channel(s) : 2 channels
Sampling rate : 48.0 KHz
Resolution : 16 bits
Stream size : 19.8 MiB
Writing library : LAME3.97
Encoding settings : CBR

related torrents

Torrent name

health leech seeds Size
 

comments (0)

Main Menu