Horror

The Descent – Abgrund des Grauens German 2005 DVDRIP[mnvv2 ws]

  • Download 5x Faster
  • Download torrent
  • Direct Download
  • Rate this torrent +  |  -
The Descent – Abgrund des Grauens German 2005 DVDRIP[mnvv2 ws]

Free and Direct Download with Usenet 300GB+ free


Torrent info

Name:The Descent – Abgrund des Grauens German 2005 DVDRIP[mnvv2 ws]

Total Size: 1.37 GB

Magnet: Magnet Link

Seeds: 0

Leechers: 0

Stream: Watch Online @ Movie4u

Last Updated: 2010-11-11 10:00:50 (Update Now)

Torrent added: 2009-09-10 06:31:56




Torrent Files List


The Descent.jpg (Size: 1.37 GB) (Files: 3)

 The Descent.jpg

25.19 KB

 The Descent.nfo

3.48 KB

 The.Descent.–.Abgrund.des.Grauens.German.2005.DVDRIP.Xvid.By.Bulli.avi

1.37 GB
 

Announce URL: http://mnvv2.ws/announce.php

Torrent description

please register at MNV

Format : AVI
Format/Info : Audio Video Interleave
Dateigre : 1.37 GiB
Duration : 1h 35min
Gesamte Bitrate : 2041 Kbps
Verwendetes Programm : VirtualDubMod 1.5.4.1 (build 2178/release)
verwendete Encoder-Bibliothek : VirtualDubMod build 2178/release
IAS1 : Deutsch

Video
Format : MPEG-4 Visual
Format profile : Streaming [email protected]
Format settings, BVOP : Nein
Format settings, QPel : Nein
Format settings, GMC : No warpoints
Format settings, Matrix : Custom
Codec ID : XVID
Codec ID/Hint : XviD
Duration : 1h 35min
Bitrate : 1913 Kbps
Breite : 720 Pixel
Höhe : 320 Pixel
Bildseitenverhältnis : 2.25
Bildwiederholungsrate : 25.000 FPS
Auflösung : 8 bits
Colorimetry : 4:2:0
Scan type : Progressive
Bits/(Pixel*Frame) : 0.332
Stream size : 1.28 GiB
verwendete Encoder-Bibliothek : XviD 1.2.0.dev47 (UTC 2006-11-01)

Audio
Format : MPEG Audio
Format version : Version 1
Format profile : Layer 3
Codec ID : 55
Codec ID/Hint : MP3
Duration : 1h 35min
Bitraten-Modus : Variable
Bitrate : 116 Kbps
Minimum bit rate : 128 Kbps
Kanäle : 2 Kanäle
Samplingrate : 48.0 KHz
Auflösung : 16 bits
Stream size : 79.4 MiB
verwendete Encoder-Bibliothek : LAME3.97
Kodierungseinstellungen : ABR

Jedes Jahr bricht eine sechsköpfige Clique junger Frauen zu abenteuerlichen Unternehmungen in der wilden Natur auf. Auf der Rückfahrt von einer Raftingtour verliert eine von ihnen bei einem grausamen Autounfall Ehemann und Kind. Ein Jahr später wollen die Freundinnen sie auf andere Gedanken bringen und überreden sie zu einem Höhlenabenteuer in einem abgelegenen Gebirgszug.

Kurz darauf bricht die sportliche Gruppe zu einer extremen Kletter-Partie in das Innere der Erde auf. Ihr Ziel: die Erkundung von weit verzweigten, unterirdischen Höhlen. Von der dunklen und geheimnisvollen, aber gleichzeitig wunderschönen Umgebung fasziniert und von Abenteuerlust gepackt, bahnen sie sich immer weiter ihren Weg durch Felsentunnel und Höhlengänge. Doch als auf einmal der Rückweg durch herab fallende Felsen versperrt wird und sich herausstellt, dass sie in absolut unbekannten Höhlen wandern, ist der Spaß vorbei und Misstrauen keimt unter den doch sehr unterschiedlichen Frauen auf.

Da niemand weiß, wo sie sind, kann mit Hilfe von außerhalb nicht gerechnet werden und es bleibt ihnen nicht anderes übrig, als nach einem anderen Ausgang ins Freie zu suchen. In der nun bedrohlich wirkenden Unterwelt beginnt ein Wettlauf gegen die Zeit. Als sie zu ihrem Entsetzen feststellen, dass sie nicht allein dort unten sind und plötzlich zu erbarmungslos Gejagten werden, wird der Naturtraum zum Albtraum. Sie nehmen einen kompromisslosen Überlebenskampf auf, in dem die Höhle zur blutigen Hölle wird ...

MFG Die Xvid-Crew

related torrents

Torrent name

health leech seeds Size
 

comments (0)

Main Menu