Action

Rules of Engagement 2000DvDrip DemonukNIKONRG

  • Download 5x Faster
  • Download torrent
  • Direct Download
  • Rate this torrent +  |  -
Rules of Engagement 2000DvDrip DemonukNIKONRG

Anonymous and free Direct Download 300GB+


Torrent info

Name:Rules of Engagement 2000DvDrip DemonukNIKONRG

Total Size: 699.99 MB

Magnet: Magnet Link

Seeds: 13

Leechers: 10

Stream: Watch Online @ Movie4u

Last Updated: 0000-00-00 00:00:00 (Update Now)

Torrent added: 2008-08-25 15:49:37



VPN For Torrents

Torrent Files List


Rules of Engagement-[2000][DvDrip]-Demonuk[NIKONRG].avi (Size: 699.99 MB) (Files: 3)

 Rules of Engagement-[2000][DvDrip]-Demonuk[NIKONRG].avi

699.99 MB

 Rules of Engagement.info.txt

1.49 KB

 Torrent downloaded from Demonoid.com.txt

0.05 KB
 

Announce URL: http://inferno.demonoid.com:3393/announce

Torrent description

Rules of Engagement-[2000][DvDrip]-Demonuk[NIKONRG]
__________________
MOVIE INFORMATION
__________________
TITLE.............:Rules of Engagement
DIRECTOR..........:William Friedkin
YEAR..............: 2000
RUNTIME...........:2h 2mn
GENRE.............: Action | Drama | Thriller | War
FORMAT.............:AVI
Format/Info.........:Audio Video Interleave
File size..........:700 MiB
Overal bit rate....801 Kbps
SOURCE............:PAL DVD
IMDB..............: http://www.imdb.com/title/tt0160797/
USER RATING............: 6.2/10 (14,619 votes)
__________________
VIDEO INFORMATION
__________________
Format: MPEG-4 Visual
Format profile: Streaming [email protected]
Format settings, BVOP: Yes
Format settings, QPel: No
Format settings, GMC: No warppoints
Format settings, Matrix: Custom
Codec ID: XVID
Codec ID/Hint: XviD
Duration: 2h 2mn
Bit rate: 674 Kbps
Width: 608 pixels
Height: 256 pixels
Display aspect ratio: 2.35
Frame rate: 25.000 fps
Resolution: 8 bits
Colorimetry: 4:2:0
Scan type: Progressive
Bits/(Pixel*Frame):0.173
Stream size: 589 MiB (84%)

__________________
AUDIO INFORMATION
__________________
Format: MPEG Audio
Format version: Version 1
Format profile: Layer 3
Codec ID: 55
Codec ID/Hint: MP3
Duration: 2h 2mn
Bit rate mode: Variable
Bit rate: 114 Kbps
Minimum bit rate: 128 Kbps
Channel(s): 2 channels
Sampling rate: 48.0 KHz
Resolution: 16 bits
Stream size: 99.5 MiB (14%)
Writing library: LAME3.97
Encoding settings: ABR

__________________
MAIN CAST
__________________
Tommy Lee Jones ... Col. Hayes 'Hodge' Hodges
Samuel L. Jackson ... Col. Terry L. Childers
Guy Pearce ... Maj. Mark Biggs
Ben Kingsley ... Ambassador Mourain
Bruce Greenwood ... National Security Advisor Bill Sokal
Anne Archer ... Mrs. Mourain


__________________
PLOT OUTLINE
__________________
Colonel Terry Childers is a 30-year Marine veteran: a decorated officer with combat experience in
Vietnam, Beirut and Desert Storm. But now, the country he served so well has put him on trial for
a rescue mission that went terribly wrong. For his attorney, he has chosen Marine Colonel Hayes Hodges
a comrade-in-arms who owes his life to Childers. Hodges is not the best lawyer in the service,
but Childers trusts him as a brother Marine who knows what it's like to risk death under fire.
Bound by duty and friendship, Hodges reluctantly takes the case, even as he begins to doubt the
man who saved his life in Vietnam three decades ago.
__________________
Info hash:F07D23D4281C2EB337F029B223B64F9F110FE4B8
Tracker announce: http://inferno.demonoid.com:3392/announce
Tracker announce: http://open.tracker.thepiratebay.org:80/announce
Tracker Scrape: http://inferno.demonoid.com:3392/scrape

__________________
Contents of download:

Rules of Engagement-[2007][DvDrip]-Demonuk[NIKONRG].avi (699MB)
Rules of Engagement.info.txt (1.48Kb)
Torrent downloaded from Demonoid.com.txt (47bytes)
___________________________________________________________________
> For Detailed Information on New Releases and Popular Request Click Here


^>>>>>>>>>>>>>>>>>>>>>>>>>>>>>>>>>>>>>>>>>>>>>>>>>>>>>>>>>>>>>>>>>>.^
^......................................................................................................@....................@......@.@@@.@...............^
^............@@...........@....@....@.......@...............................................@..................@......@................@...........^
^............@.@..........@...........@......@.......@@@@........ @..@.@.@......@...............@.......@..................@.........^
^............@..@.........@....@....@.....@....@..............@.....@@.........@......@............@........@...................@........^
^............@...@........@....@....@....@....@................@....@.............@.......@........@..........@...................@........^
^............@....@.......@....@....@...@....@..................@...@.............@.........@.....@...........@..................@.........^
^............@.....@......@....@....@@......@....................@..@.............@...........@@..............@@@@@@@............^
^............@......@.....@....@....@@......@....................@..@.............@.........@.....@...........@..............................^
^............@.......@....@....@....@...@....@...................@..@.............@........@.........@........@..............................^
^............@........@...@....@....@....@....@.................@...@.............@......@............@.......@..............................^
^............@.........@..@....@....@.....@....@...............@....@.............@....@................@.....@..............................^
^............@..........@.@....@....@......@....@.............@.....@.............@...@...................@...@..............................^
^............@...........@@....@....@.......@.....@.@.@..@......@.............@..@.....................@..@..............................^
^<<<<<<<<<<<<<<<<<<<<<<<<<<<<<<<<<<<<<<<<<<<<<<<<<<<<<<<<<<<<<<<<<<.^

related torrents

Torrent name

health leech seeds Size
 


comments (0)

Main Menu