TV - Other

Emmerdale (20th June 2008) [PDTV (Xvid)] supreme speeds com

  • Download 5x Faster
  • Download torrent
  • Direct Download
  • Rate this torrent +  |  -

Torrent info

Name:Emmerdale (20th June 2008) [PDTV (Xvid)] supreme speeds com

Total Size: 174.75 MB

Magnet: Magnet Link

Seeds: 0

Leechers: 0

Stream: Watch Online @ Movie4u

Last Updated: 2010-08-01 10:18:25 (Update Now)

Torrent added: 2009-09-10 06:18:52



VPN For Torrents

Torrent Files List


Emmerdale (20th June 2008) [PDTV (Xvid)].avi (Size: 174.75 MB) (Files: 2)

 Emmerdale (20th June 2008) [PDTV (Xvid)].avi

174.75 MB

 Emmerdale (20th June 2008) [PDTV (Xvid)].nfo

2.51 KB
 

Announce URL: http://supreme-speeds.com/announce.php?passkey=tssespecialtorrentv1byxamsep2007

Torrent description

Emmerdale (20th June 2008) [PDTV (Xvid)].avi

website:-
http://www.itv.com/Soaps/emmerdale/default.html

Emmerdale (Soap)
Time - 19:00 - 19:30 (30 minutes long)
When - Friday 20th June on ITV1 London
Val decides that the factory has no future. Gennie tries, but fails, to impress the Dingles. Donna's relieved when things get back to normal with Ross.
Director: Lee Salisbury
Starring: Charlie Hardwick, Sian Reese-Williams, Verity Rushworth, Samuel Anderson, Steve Halliwell, Jane Cox
(Stereo, Widescreen, Subtitles, Audio Described)


Video info:-

Complete name : Emmerdale (20th June 2008) [PDTV (Xvid)].avi
Format : AVI
Format/Info : Audio Video Interleave
File size : 175 MiB
Duration : 22mn 440ms
Overal bit rate : 1110 Kbps
Writing application : VirtualDubMod 1.5.4.1 (build 2178/release)
Writing library : VirtualDubMod build 2178/release

Video
Format : MPEG-4 Visual
Format settings, BVOP : No
Format settings, QPel : No
Format settings, GMC : 0 warppoint
Format settings, Matrix : Default
Codec ID : XVID
Codec ID/Hint : XviD
Duration : 22mn 440ms
Bit rate : 975 Kbps
Width : 640 pixels
Height : 368 pixels
Display aspect ratio : 16/9
frame rate : 25.000 fps
Resolution : 8 bits
Colorimetry : 4:2:0
Scan type : Progressive
Bits/(Pixel*frame) : 0.166
Stream size : 153 MiB
Writing library : XviD 1.0.1
Writing library/Date : UTC 2004-06-05

Audio
Format : MPEG Audio
Format version : Version 1 / Layer 3
Codec ID : 55
Codec ID/Hint : MP3
Duration : 22mn 432ms
Bit rate mode : CBR
Bit rate : 128 Kbps
Minimum bit rate : 128 Kbps
Channel(s) : 2 channels
Sampling rate : 48.0 KHz
Resolution : 16 bits
Stream size : 20.1 MiB
Writing library : LAME3.97
Encoding settings : CBR

related torrents

Torrent name

health leech seeds Size
 


comments (0)

Main Menu