Rock

ELECTRIC LIGHT ORCHESTRA Discovery (1979)(2001 Remaster)[eac flac][colombo bt org][colombo bt org]

  • Download 5x Faster
  • Download torrent
  • Direct Download
  • Rate this torrent +  |  -

Torrent info

Name:ELECTRIC LIGHT ORCHESTRA Discovery (1979)(2001 Remaster)[eac flac][colombo bt org][colombo bt org]

Total Size: 290.91 MB

Magnet: Magnet Link

Seeds: 0

Leechers: 0

Stream: Watch Online @ Movie4u

Last Updated: 2016-01-28 13:58:11 (Update Now)

Torrent added: 2009-09-10 06:15:17





Torrent Files List


Discovery [Remastered + Expanded].cue (Size: 290.91 MB) (Files: 22)

 Discovery [Remastered + Expanded].cue

2.26 KB

 Electric Light Orchestra - Discovery [Remastered + Expanded].log

5.89 KB

 Electric Light Orchestra - Discovery [Remastered + Expanded].m3u

1.12 KB

 ELO - Discovery (1979 - Remaster 2001) [eac flac].ffp

0.86 KB

 elo copertine artwork

  elo411.jpg

311.46 KB

  elo412.jpg

863.02 KB

  elo413.jpg

776.69 KB

  elo414.jpg

1.48 MB

  elo415.jpg

1.81 MB

 elo discovery.txt

0.52 KB

 flac

  01 Shine A Little Love.flac

30.75 MB

  02 Confusion.flac

23.88 MB

  03 Need Her Love.flac

31.51 MB

  04 The Diary Of Horace Wimp.flac

26.66 MB

  05 Last Train To London.flac

31.03 MB

  06 Midnight Blue.flac

26.81 MB

  07 On The Run.flac

28.07 MB

  08 Wishing.flac

25.42 MB

  09 Don't Bring Me Down.flac

31.21 MB

  10 On The Run [Home Demo, Bonus Track].flac

6.50 MB

  11 Second Time Around [Home Demo, Bonus Track].flac

3.95 MB

  12 Little Town Flirt [Del Shannon cover, Bonus Track].flac

19.93 MB
 

tracker

leech seeds
 

Torrent description

ELECTRIC LIGHT ORCHESTRA   Discovery (1979)(2001 Remaster)[eac flac][colombo bt org][colombo bt org] preview 0

[color=blue][size=18pt]\"ELECTRIC LIGHT ORCHESTRA - Discovery (1979)(2001 Remaster)[Eac Flac]\"[/size][/color]

ELECTRIC LIGHT ORCHESTRA   Discovery (1979)(2001 Remaster)[eac flac][colombo bt org][colombo bt org] preview 1

[color=blue][font=Verdana]TITOLO: ELO - Discovery
ANNO: 1979
ETICHETTA: Epic Sony
GENERE: Rock sinfonico Inglese
FORMATO: Flac Level 8
COPERTINE: sì (scansioni originali)
FONTE: CD originale
EDIZIONE: Epic Sony Legacy remaster 2001
[/font][/color]

[code]Exact Audio Copy V0.99 prebeta 3 from 28. July 2007

EAC extraction logfile from 16. June 2008, 21:39

Electric Light Orchestra / Discovery [Remastered + Expanded]

Used drive : PLEXTOR DVDR PX-800A Adapter: 1 ID: 0

Read mode : Secure
Utilize accurate stream : Yes
Defeat audio cache : Yes
Make use of C2 pointers : No

Read offset correction : 48
Overread into Lead-In and Lead-Out : Yes
Fill up missing offset samples with silence : Yes
Delete leading and trailing silent blocks : No
Null samples used in CRC calculations : Yes
Used interface : Installed external ASPI interface
Gap handling : Appended to previous track

Used output format : Internal WAV Routines
Sample format : 44.100 Hz; 16 Bit; Stereo


TOC of the extracted CD

Track | Start | Length | Start sector | End sector
---------------------------------------------------------
1 | 0:00.00 | 4:43.00 | 0 | 21224
2 | 4:43.00 | 3:42.45 | 21225 | 37919
3 | 8:25.45 | 5:11.70 | 37920 | 61314
4 | 13:37.40 | 4:17.72 | 61315 | 80661
5 | 17:55.37 | 4:31.23 | 80662 | 101009
6 | 22:26.60 | 4:19.12 | 101010 | 120446
7 | 26:45.72 | 3:55.65 | 120447 | 138136
8 | 30:41.62 | 4:13.50 | 138137 | 157161
9 | 34:55.37 | 4:06.30 | 157162 | 175641
10 | 39:01.67 | 1:01.33 | 175642 | 180249
11 | 40:03.25 | 0:43.30 | 180250 | 183504
12 | 40:46.55 | 2:53.50 | 183505 | 196529


Track 1

Filename C:\\Documents and Settings\\Stefano\\Desktop\\ELO - Discovery (1979 - Remaster 2001) [eac flac]\\01 Shine A Little Love.wav

Pre-gap length 0:00:02.00

Peak level 100.0 %
Track quality 100.0 %
Test CRC 00DA2259
Copy CRC 00DA2259
Accurately ripped (confidence 20) [590412C6]
Copy OK

Track 2

Filename C:\\Documents and Settings\\Stefano\\Desktop\\ELO - Discovery (1979 - Remaster 2001) [eac flac]\\02 Confusion.wav

Pre-gap length 0:00:01.28

Peak level 100.0 %
Track quality 100.0 %
Test CRC 1262AE03
Copy CRC 1262AE03
Accurately ripped (confidence 20) [B6AAF1CE]
Copy OK

Track 3

Filename C:\\Documents and Settings\\Stefano\\Desktop\\ELO - Discovery (1979 - Remaster 2001) [eac flac]\\03 Need Her Love.wav

Pre-gap length 0:00:00.65

Peak level 100.0 %
Track quality 100.0 %
Test CRC 0777529B
Copy CRC 0777529B
Accurately ripped (confidence 20) [2AB63E0B]
Copy OK

Track 4

Filename C:\\Documents and Settings\\Stefano\\Desktop\\ELO - Discovery (1979 - Remaster 2001) [eac flac]\\04 The Diary Of Horace Wimp.wav

Pre-gap length 0:00:00.35

Peak level 100.0 %
Track quality 100.0 %
Test CRC 2D110D93
Copy CRC 2D110D93
Accurately ripped (confidence 20) [CA7539BF]
Copy OK

Track 5

Filename C:\\Documents and Settings\\Stefano\\Desktop\\ELO - Discovery (1979 - Remaster 2001) [eac flac]\\05 Last Train To London.wav

Pre-gap length 0:00:00.70

Peak level 88.2 %
Track quality 99.9 %
Test CRC A3214D4D
Copy CRC A3214D4D
Accurately ripped (confidence 20) [F5392440]
Copy OK

Track 6

Filename C:\\Documents and Settings\\Stefano\\Desktop\\ELO - Discovery (1979 - Remaster 2001) [eac flac]\\06 Midnight Blue.wav

Pre-gap length 0:00:00.73

Peak level 100.0 %
Track quality 100.0 %
Test CRC A634E69B
Copy CRC A634E69B
Accurately ripped (confidence 20) [EC015F5B]
Copy OK

Track 7

Filename C:\\Documents and Settings\\Stefano\\Desktop\\ELO - Discovery (1979 - Remaster 2001) [eac flac]\\07 On The Run.wav

Pre-gap length 0:00:01.17

Peak level 95.3 %
Track quality 100.0 %
Test CRC 042A04DF
Copy CRC 042A04DF
Accurately ripped (confidence 20) [A6D3E102]
Copy OK

Track 8

Filename C:\\Documents and Settings\\Stefano\\Desktop\\ELO - Discovery (1979 - Remaster 2001) [eac flac]\\08 Wishing.wav

Peak level 100.0 %
Track quality 99.9 %
Test CRC 57642F6B
Copy CRC 57642F6B
Accurately ripped (confidence 20) [E9066146]
Copy OK

Track 9

Filename C:\\Documents and Settings\\Stefano\\Desktop\\ELO - Discovery (1979 - Remaster 2001) [eac flac]\\09 Don\'t Bring Me Down.wav

Peak level 90.1 %
Track quality 99.9 %
Test CRC 04E6758E
Copy CRC 04E6758E
Accurately ripped (confidence 20) [3327A526]
Copy OK

Track 10

Filename C:\\Documents and Settings\\Stefano\\Desktop\\ELO - Discovery (1979 - Remaster 2001) [eac flac]\\10 On The Run [Home Demo, Bonus Track].wav

Pre-gap length 0:00:02.55

Peak level 100.0 %
Track quality 99.8 %
Test CRC 6E95C63F
Copy CRC 6E95C63F
Accurately ripped (confidence 20) [0577D3F2]
Copy OK

Track 11

Filename C:\\Documents and Settings\\Stefano\\Desktop\\ELO - Discovery (1979 - Remaster 2001) [eac flac]\\11 Second Time Around [Home Demo, Bonus Track].wav

Pre-gap length 0:00:01.53

Peak level 79.5 %
Track quality 100.0 %
Test CRC 3FFBD930
Copy CRC 3FFBD930
Accurately ripped (confidence 20) [941751CA]
Copy OK

Track 12

Filename C:\\Documents and Settings\\Stefano\\Desktop\\ELO - Discovery (1979 - Remaster 2001) [eac flac]\\12 Little Town Flirt [Del Shannon cover, Bonus Track].wav

Pre-gap length 0:00:01.53

Peak level 100.0 %
Track quality 99.9 %
Test CRC A60D100A
Copy CRC A60D100A
Accurately ripped (confidence 17) [E5EA5616]
Copy OK


All tracks accurately ripped

No errors occurred

End of status report
[/code]

ELECTRIC LIGHT ORCHESTRA   Discovery (1979)(2001 Remaster)[eac flac][colombo bt org][colombo bt org] preview 2

[color=blue]01.shine a little love
02.confusion
03.need her love
04.the diary of horace wimp
05.last train to london
06.midnight blue
07.on the run
08.wishing
09.don\'t bring me down

Bonus Tracks
10.on the run
11.second time around
12.little town flirt

FORMAZIONE
JEFF LYNNE - vocals, guitar
BEV BEVAN - drums
RICHARD TANDY - piano
KELLY GROUCUTT - basso
strings conducted by LOUIS CLARK
[/color]

ELECTRIC LIGHT ORCHESTRA   Discovery (1979)(2001 Remaster)[eac flac][colombo bt org][colombo bt org] preview 3

ELECTRIC LIGHT ORCHESTRA   Discovery (1979)(2001 Remaster)[eac flac][colombo bt org][colombo bt org] preview 4

[font=Verdana]
ELO, gruppo rock inglese nato dalle ceneri dei MOVE.
Il loro rock si può definire sinfonico visto che la band prevedeva anche degli archi, ma alla descrizione del genere forse è bene aggiungere anche l’aggettivo melodico.
Verso la fine degli anni settanta certi loro successi risentirono anche della influenza della disco music, ma non per questo il gruppo è da denigrare: le loro canzoni rimangono comunque su ottimi livelli qualitativi.
DISCOVERY è uno dei loro album più di successo, essendo CONFUSION, LAST TRAIN TO LONDON e DON’T BRING ME DOWN canzoni irresistibili.

Recensione di Nonantolaslim – giugno 2008

[/font]

related torrents

Torrent name

health leech seeds Size
 

comments (0)

Main Menu