Action

Im Auftrag des Teufels [mnvv2 ws]

  • Download 5x Faster
  • Download torrent
  • Direct Download
  • Rate this torrent +  |  -
Im Auftrag des Teufels [mnvv2 ws]

Anonymous and Free Direct Download


Torrent info

Name:Im Auftrag des Teufels [mnvv2 ws]

Total Size: 1.37 GB

Magnet: Magnet Link

Seeds: 0

Leechers: 1

Stream: Watch Online @ Movie4u

Last Updated: 2015-09-13 02:32:26 (Update Now)

Torrent added: 2009-09-10 06:12:04



VPN For Torrents

Torrent Files List


Im Auftrag des Teufels.avi (Size: 1.37 GB) (Files: 3)

 Im Auftrag des Teufels.avi

1.37 GB

 im_auftrag_des_teufels.jpg

44.47 KB

 im_auftrag_des_teufels.nfo

2.97 KB
 

tracker

leech seeds
 

Torrent description

please register at mnvv2.ws

In den Gerichtssaelen von Florida erweist sich Anwalt Kevin Lomax (KENAU REEVES) als unschlagbar.
So wird John Milton (AL PACINO), Herrscher über eine weltweit operierende Anwaltskanzlei in New York, auf Kevin aufmerksam.
Er offeriert ihm ein Leben in Luxus, fordert aber bedingungslosen Einsatz.
Kevin setzt seine spektakulaere Karriere in Manhatten fort, doch seine Frau Mary Ann (CHARLIZE THERON) fuehlt sich allein gelassen und wird von Alptraeumen verfolgt.
Der Himmel auf Erden stellt sich als Hoelle heraus.
Nur weil er nicht auf sein Gewissen hoert, verbucht Kevin weitere Erfolge.
Doch dann wird sein Kollege Eddie Barzoon (JEFREY JONES) ermordet.
Vergeblich warnt ihn seine Mutter (JUDITH IVEY) vor dem modernen Suendenbabel.
Kevin Lomax hat ploetzlich Hoellenangst.
Und am Hoellentor empfaengt ihn John Milton.

Titel: Im Auftrag des Teufels
Titel (orig.): The devils advocate
Land: USA
Jahr: 1997
Regie: Tylor Hackford
Darsteller: Kenau Reeves, Al Pacino, Charlize Theron, Jefrey Jones, Judith Ivey, Connie Nielsen
Autor: Jonathan Lemkin, Tony Gilroy
Musik: James Newton Howard
Produzent: Kopelson Entertainment / New Regency


Format : AVI
Format/Info : Audio Video Interleave
Dateigre : 1.37 GiB
Duration : 2h 18min
Gesamte Bitrate : 1419 Kbps
Verwendetes Programm : VirtualDubMod 1.5.4.1 (build 2178/release)
verwendete Encoder-Bibliothek : VirtualDubMod build 2178/release
IAS1 : Deutsch

Video
Format : MPEG-4 Visual
Format profile : Streaming [email protected]
Format settings, BVOP : Ja
Format settings, QPel : Nein
Format settings, GMC : No warpoints
Format settings, Matrix : Custom
Codec ID : XVID
Codec ID/Hint : XviD
Duration : 2h 18min
Bitrate : 1028 Kbps
Breite : 640 Pixel
Höhe : 272 Pixel
Bildseitenverhältnis : 2.35
Bildwiederholungsrate : 25.000 FPS
Auflösung : 8 bits
Colorimetry : 4:2:0
Scan type : Progressive
Bits/(Pixel*Frame) : 0.236
Stream size : 1015 MiB
verwendete Encoder-Bibliothek : XviD 1.2.0.dev47 (UTC 2006-11-01)

Audio
Format : AC-3
Format/Info : Audio Coding 3
Codec ID : 2000
Duration : 2h 18min
Bitraten-Modus : Constant
Bitrate : 384 Kbps
Kanäle : 6 Kanäle
Channel positions : Front: L C R, Rear: L R, LFE
Samplingrate : 48.0 KHz
Video0 Verzögerung : 9ms
Stream size : 379 MiB

related torrents

Torrent name

health leech seeds Size
 


comments (0)

Main Menu