Comedy

Kick It Like Beckham 2002 DVDrip German DivX [mnvv2 ws]

  • Download 5x Faster
  • Download torrent
  • Direct Download
  • Rate this torrent +  |  -
Kick It Like Beckham 2002 DVDrip German DivX [mnvv2 ws]

Free and Direct Download with Usenet 300GB+ free


Torrent info

Name:Kick It Like Beckham 2002 DVDrip German DivX [mnvv2 ws]

Total Size: 699.19 MB

Magnet: Magnet Link

Seeds: 0

Leechers: 0

Stream: Watch Online @ Movie4u

Last Updated: 2010-11-09 07:32:45 (Update Now)

Torrent added: 2009-09-10 06:09:28




Torrent Files List


Kick.It.Like.Beckham.2002.DVDrip.German.DivX.avi (Size: 699.19 MB) (Files: 1)

 Kick.It.Like.Beckham.2002.DVDrip.German.DivX.avi

699.19 MB
 

Announce URL: http://mnvv2.ws/announce.php

Torrent description

please register at mnvv2.ws

General
Complete name : Kick.It.Like.Beckham.2002.DVDrip.German.DivX.avi
Format : AVI
Format/Info : Audio Video Interleave
File size : 699 MiB
Duration : 1h 47mn
Overal bit rate : 909 Kbps
Writing application : Nandub v1.0rc2
Writing library : Nandub build 1853/release

Video
Format : MPEG-4 Visual
Format settings, BVOP : No
Format settings, QPel : No
Format settings, GMC : 32 warppoints
Format settings, Matrix : Default
Codec ID : DIV3
Codec ID/Hint : DivX 3 Low
Duration : 1h 47mn
Bit rate : 768 Kbps
Width : 576 pixels
Height : 320 pixels
Frame rate : 25.000 fps
Resolution : 32 bits
Scan type : Progressive
Bits/(Pixel*Frame) : 30.000
Stream size : 591 MiB

Audio
Format : MPEG Audio
Format version : Version 1
Format profile : Layer 3
Codec ID : 55
Codec ID/Hint : MP3
Duration : 1h 47mn
Bit rate mode : Variable
Bit rate : 128 Kbps
Channel(s) : 2 channels
Sampling rate : 44.1 KHz
Resolution : 16 bits
Stream size : 98.5 MiB
Writing library : LAME3.88 (alpha)

IMdB: http://german.imdb.com/title/tt0286499/


Originaltitel : Bend It Like Beckham
Herstellungsland : Großbritannien
Genre : Komoedie/Romanze
Erscheinungsjahr : 2002
Regie : Gurinder Chadha
Darsteller : Parminder Nagra, Keira Knightley, Jonathan Rhys Meyers, Anupam Kher u.a.


Beschreibung:

Kick it like Beckham (Originaltitel: Bend It Like Beckham) ist eine Filmkomödie der britischen Regisseurin Gurinder Chadha aus dem Jahr 2002. Im darauffolgenden Jahr erschien die an den Film gehaltene, englischsprachige Schullektüre „Bend It Like Beckham“ von Narinder Dhami, welche im Englischunterricht deutscher Schulen verwendet wird.

Jesminder Bhamra, kurz Jess, die Tochter einer in Großbritannien lebenden Familie mit indischen Wurzeln, spielt, gegen den Willen ihrer Eltern, leidenschaftlich gerne Fußball. Insbesondere ihre Mutter erwartet, dass Jess sich doch lieber darum kümmern solle, die traditionelle indische Küche zu erlernen und andere Rollenerwartungen zu erfüllen. Die indische Familie befindet sich mitten in den Hochzeitsvorbereitungen für Pinky, die ältere Schwester von Jess. Pinky hat sich ihren Ehemann selbst ausgesucht, was bei den Indern, wo traditionsgem die Eltern Ehen arrangieren, schon sehr westlich ist. Zudem hat sich Pinky durchaus der englischen Gesellschaft angepasst, und sie geht auch nicht mehr jungfräulich in die Ehe. Auf den ersten Blick scheint es so, als ob es ihr gelungen sei, dies vor ihren Eltern zu verheimlichen, aber im Verlauf der Handlung macht die Mutter eine Bemerkung, aus der hervorgeht, dass sie es die ganze Zeit wusste...

related torrents

Torrent name

health leech seeds Size

Kick It Like Beckham

0 1 699.00 MB 0
 

comments (0)

Main Menu