Sci-Fi

Matrix 1 3 complet german avi [mnvv2 ws]

  • Download 5x Faster
  • Download torrent
  • Direct Download
  • Rate this torrent +  |  -
Matrix 1 3 complet german avi [mnvv2 ws]

Anonymous and free Direct Download 300GB+


Torrent info

Name:Matrix 1 3 complet german avi [mnvv2 ws]

Total Size: 4.05 GB

Magnet: Magnet Link

Seeds: 0

Leechers: 0

Stream: Watch Online @ Movie4u

Last Updated: 2011-11-20 10:36:45 (Update Now)

Torrent added: 2009-09-10 05:32:40



VPN For Torrents

Torrent Files List


cover1.jpg (Size: 4.05 GB) (Files: 12)

 cover1.jpg

4.42 KB

 cover2.jpg

5.03 KB

 cover3.jpg

5.05 KB

 Matrix.German.Dvd-Rip.Ac3.Cd1.avi

701.98 MB

 Matrix.German.Dvd-Rip.Ac3.Cd2.avi

698.32 MB

 Matrix.German.Dvd-Rip.Ac3.nfo

1.81 KB

 Matrix.Reloaded.german.DVDrip.DivX-5.1.AC3-5.1.CD1.avi

690.81 MB

 Matrix.Reloaded.german.DVDrip.DivX-5.1.AC3-5.1.CD2.avi

676.08 MB

 Matrix.Reloaded.german.DVDrip.DivX-5.1.AC3-5.1.nfo

2.03 KB

 Matrix.Revolutions.German.Dvdrip.Divx.Ac3-5.Cd1.avi

685.73 MB

 Matrix.Revolutions.German.Dvdrip.Divx.Ac3-5.Cd2.avi

693.97 MB

 Matrix.Revolutions.German.Dvdrip.Divx.Ac3-5.nfo

2.04 KB
 

Announce URL:

Torrent description

please register at mnvv2.ws






General
Complete name : D:downloadsMatrix 1-3Matrix.German.Dvd-Rip.Ac3.Cd1.avi
Format : AVI
Format/Info : Audio Video Interleave
File size : 702 MiB
Duration : 1h 12mn
Overal bit rate : 1349 Kbps
Writing application : Nandub v1.0rc2
Writing library : Nandub build 1852/release

Video
Format : MPEG-4 Visual
Format settings, BVOP : Yes
Format settings, QPel : No
Format settings, GMC : 2 warppoints
Format settings, Matrix : Default
Muxing mode : Packet Bitstream
Codec ID : DX50
Codec ID/Hint : DivX 5
Duration : 1h 12mn
Bit rate : 955 Kbps
Width : 704 pixels
Height : 288 pixels
Display aspect ratio : 2.444
Frame rate : 25.000 fps
Resolution : 8 bits
Scan type : Progressive
Bits/(Pixel*Frame) : 0.188
Stream size : 497 MiB
Writing library : DivX 5.0.2 (UTC 2002-05-16)

Audio
Format : AC-3
Format/Info : Audio Coding 3
Codec ID : 2000
Duration : 1h 12mn
Bit rate mode : Constant
Bit rate : 384 Kbps
Channel(s) : 6 channels
Channel positions : Front: L C R, Rear: L R, LFE
Sampling rate : 48.0 KHz
Video delay : 25ms
Stream size : 200 MiB

related torrents

Torrent name

health leech seeds Size
 


comments (0)

Main Menu