Anime - Other

Pucca Movies avi [mnvv2 ws]

  • Download 5x Faster
  • Download torrent
  • Direct Download
  • Rate this torrent +  |  -
Pucca Movies avi [mnvv2 ws]

Anonymous and Free Direct Download 300GB+


Torrent info

Name:Pucca Movies avi [mnvv2 ws]

Total Size: 318.37 MB

Magnet: Magnet Link

Seeds: 0

Leechers: 0

Stream: Watch Online @ Movie4u

Last Updated: 2011-01-02 01:47:20 (Update Now)

Torrent added: 2009-09-10 05:32:38



VPN For Torrents

Torrent Files List


cover1.jpg (Size: 318.37 MB) (Files: 9)

 cover1.jpg

3.70 KB

 cover2.jpg

4.44 KB

 Pucca - 12 Funny Love Stories.avi

174.98 MB

 Pucca - Choco Choco.mpg

28.51 MB

 Pucca 01 - kissing with icecream.avi

11.97 MB

 Pucca 06 - various kissing ways.avi

34.40 MB

 Pucca 13 - summer story.avi

35.90 MB

 Pucca 31 - Happy Valentine's day.avi

32.59 MB

 Pucca.nfo

1.77 KB
 

Announce URL: http://mnvv2.ws/announce.php

Torrent description

please register at mnvv2.ws





General
Complete name : D:downloadsPucca moviesPucca 13 - summer story.avi
Format : AVI
Format/Info : Audio Video Interleave
File size : 35.9 MiB
Duration : 4mn 17s
Overal bit rate : 1171 Kbps

Video
Format : MPEG-4 Visual
Format settings, BVOP : Yes
Format settings, QPel : No
Format settings, GMC : No warppoints
Format settings, Matrix : Default
Muxing mode : Packet Bitstream
Codec ID : DX50
Codec ID/Hint : DivX 5
Duration : 2mn 8s
Bit rate : 926 Kbps
Width : 1200 pixels
Height : 800 pixels
Display aspect ratio : 1.500
Frame rate : 24.000 fps
Resolution : 8 bits
Colorimetry : 4:2:0
Scan type : Progressive
Bits/(Pixel*Frame) : 0.040
Stream size : 14.2 MiB
Writing library : DivX 5.1.1 (Maupiti) (UTC 2003-11-19)

Audio
Format : PCM
Format settings, Endianness : Little
Format settings, Sign : Unsigned
Codec ID : 1
Codec ID/Hint : Microsoft
Duration : 4mn 17s
Bit rate mode : Constant
Bit rate : 1411.2 Kbps
Channel(s) : 2 channels
Sampling rate : 44.1 KHz
Resolution : 16 bits
Stream size : 21.6 MiB


related torrents

Torrent name

health leech seeds Size
 


comments (0)

Main Menu