Anime - Other

Heibane renmei anime german sub avi [mnvv2 ws]

  • Download 5x Faster
  • Download torrent
  • Direct Download
  • Rate this torrent +  |  -
Heibane renmei anime german sub avi [mnvv2 ws]

Anonymous and Free Direct Download 300GB+


Torrent info

Name:Heibane renmei anime german sub avi [mnvv2 ws]

Total Size: 529.94 MB

Magnet: Magnet Link

Seeds: 0

Leechers: 0

Stream: Watch Online @ Movie4u

Last Updated: 2010-09-05 03:47:13 (Update Now)

Torrent added: 2009-09-10 05:32:36



VPN For Torrents

Torrent Files List


Anime (German Sub, Yagaf) - Haibane Renmei - 01v2 (13) - Der Kokon.avi (Size: 529.94 MB) (Files: 6)

 Anime (German Sub, Yagaf) - Haibane Renmei - 01v2 (13) - Der Kokon.avi

181.77 MB

 Anime (German Sub, Yagaf) - Haibane Renmei - 02v3 (13) - Stadt Und Mauer.avi

176.05 MB

 Anime (German Sub, Yagaf) - Haibane Renmei - 03v2 (13) - Der Tempel.avi

172.11 MB

 cover1.jpg

4.26 KB

 cover2.jpg

4.04 KB

 Heibane renmei anime.nfo

2.03 KB
 

Announce URL: http://mnvv2.ws/announce.php

Torrent description

please register at mnvv2.ws







General
Complete name : D:downloadsHaibane renmei animeAnime (German Sub, Yagaf) - Haibane Renmei - 01v2 (13) - Der Kokon.avi
Format : AVI
Format/Info : Audio Video Interleave
File size : 182 MiB
Duration : 22mn 55s
Overal bit rate : 1108 Kbps
Writing application : VirtualDubMod 1.5.10.1 (build 2439/release)
Writing library : VirtualDubMod build 2439/release

Video
Format : MPEG-4 Visual
Format profile : [email protected]
Format settings, BVOP : Yes
Format settings, QPel : No
Format settings, GMC : No warppoints
Format settings, Matrix : Default
Codec ID : XVID
Codec ID/Hint : XviD
Duration : 22mn 55s
Bit rate : 940 Kbps
Width : 720 pixels
Height : 400 pixels
Display aspect ratio : 16/9
Frame rate : 29.970 fps
Resolution : 8 bits
Colorimetry : 4:2:0
Scan type : Progressive
Bits/(Pixel*Frame) : 0.109
Stream size : 154 MiB
Writing library : XviD 1.0.1 (UTC 2004-06-05)

Audio
Format : MPEG Audio
Format version : Version 1
Format profile : Layer 3
Codec ID : 55
Codec ID/Hint : MP3
Duration : 22mn 55s
Bit rate mode : Variable
Bit rate : 154 Kbps
Channel(s) : 2 channels
Sampling rate : 48.0 KHz
Resolution : 16 bits
Stream size : 25.3 MiB
Writing library : LAME3.93a
Encoding settings : VBR (rh)

related torrents

Torrent name

health leech seeds Size
 


comments (0)

Main Menu