Martial Arts

The Young Master DVDRip XviD

  • Download 5x Faster
  • Download torrent
  • Direct Download
  • Rate this torrent +  |  -
The Young Master DVDRip XviD

Free and Direct Download with Usenet.nl 300GB+ free


Torrent info

Name:The Young Master DVDRip XviD

Total Size: 1.37 GB

Magnet: Magnet Link

Seeds: 0

Leechers: 0

Stream: Watch Online @ Movie4u

Last Updated: 2016-11-09 02:42:45 (Update Now)

Torrent added: 2009-09-10 02:36:47





Torrent Files List


cover.jpg (Size: 1.37 GB) (Files: 6)

 cover.jpg

39.72 KB

 The.Young.Master.1980.DVDRip.XviD.CD1.avi

699.16 MB

 The.Young.Master.1980.DVDRip.XviD.CD1.srt

36.76 KB

 The.Young.Master.1980.DVDRip.XviD.CD2.avi

701.35 MB

 The.Young.Master.1980.DVDRip.XviD.CD2.srt

23.89 KB

 The.Young.Master.1980.DVDRip.XviD.nfo

1.50 KB
 

tracker

leech seeds
 

Torrent description

Overview
Director:
Jackie Chan
Writers:
Jackie Chan (writer)
King Sang Tang (writer)
Release Date:
1981 (Japan) more
Genre:
Action | Comedy more
Plot:
After failing his fellow students in a Lion Dance competition, Dragon (Jackie Chan) is sent away from his school in disgrace... more | add synopsis
Plot Keywords:
Hapkido | China | Historical | Kung Fu | Martial Arts
more LANGUAGE ENGLISH

User Comments:
Now one of my all time favourite Jackie Chan movies
Complete name : The.Young.Master.1980.DVDRip.XviD.CD1.avi
Format : AVI
Format/Info : Audio Video Interleave
File size : 699 MiB
Duration : 50mn 31s
Overall bit rate : 1935 Kbps
Writing application : VirtualDubMod 1.5.4.1 (build 2178/release)
Writing library : VirtualDubMod build 2178/release
IAS1 : English / English
Video
Format : MPEG-4 Visual
Format profile : Streaming [email protected]
Format settings, BVOP : Yes
Format settings, QPel : No
Format settings, GMC : No warppoints
Format settings, Matrix : Custom
Codec ID : XVID
Codec ID/Hint : XviD
Duration : 50mn 31s
Bit rate : 1480 Kbps
Width : 640 pixels
Height : 272 pixels
Display aspect ratio : 2.35
Frame rate : 25.000 fps
Resolution : 8 bits
Colorimetry : 4:2:0
Scan type : Progressive
Bits/(Pixel*Frame) : 0.340
Stream size : 535 MiB (76%)
Writing library : XviD 1.2.0.dev47 (UTC 2006-11-01)
Audio
Format : AC-3
Format/Info : Audio Coding 3
Codec ID : 2000
Duration : 50mn 31s
Bit rate mode : Constant
Bit rate : 448 Kbps
Channel(s) : 6 channels
Channel positions : Front: L C R, Rear: L R, LFE
Sampling rate : 48.0 KHz
Stream size : 162 MiB (23%)
Alignment : Aligned on interleaves
Interleave, duration : 96 ms (2.40 video frames)
Interleave, preload duration : 96 ms

related torrents

Torrent name

health leech seeds Size
 

comments (0)

Main Menu