Drama

Der Tatooist Deutsch Xvid [mnvv2 ws]

  • Download 5x Faster
  • Download torrent
  • Direct Download
  • Rate this torrent +  |  -
Der Tatooist Deutsch Xvid [mnvv2 ws]

Free and Direct Download with Usenet.nl 300GB+ free


Torrent info

Name:Der Tatooist Deutsch Xvid [mnvv2 ws]

Total Size: 699.93 MB

Magnet: Magnet Link

Seeds: 0

Leechers: 0

Stream: Watch Online @ Movie4u

Last Updated: 2011-03-24 13:34:48 (Update Now)

Torrent added: 2009-09-10 00:39:50





Torrent Files List


Der Tatooist (Size: 699.93 MB) (Files: 3)

 Der Tatooist

  Film.avi

699.92 MB

 Film.JPG

4.77 KB

 Info.txt

2.54 KB
 

Announce URL: http://mnvv2.ws/announce.php

Torrent description

Der.Tatooist.Deutsch.Xvid
Bei einer Ausstellung in Singapur lernt der amerikanische Tattoo-Künstler Jake Sawyer nicht nur die geheimnisvolle Sina

kennen und lieben, sondern auch die traditionelle samoanische Tätowierkunst Tatau. Als er beim Experimentieren mit alten

Werkzeugen unwillentlich einen mächtigen und bösartigen Geist entfesselt, wird Jakes Kunst zur tödlichen Gefahr für sich und

sein Umfeld. Denn der Dämon befällt jeden, den Jake berührt. Um Sina und sich selbst vor den unheimlichen Konsequenzen zu

bewahren, begint sich der Tattooist auf eine Reise in die geheimnisvolle Welt pazifischer Mythen und Legenden







Format : AVI
Format/Info : Audio Video Interleave
Dateigre : 700 MiB
Duration : 1h 27min
Gesamte Bitrate : 1119 Kbps
Verwendetes Programm : VirtualDubMod 1.5.10.2 (build 2540/release)
verwendete Encoder-Bibliothek : VirtualDubMod build 2540/release

Video
Format : MPEG-4 Visual
Format profile : Streaming [email protected]
Format settings, BVOP : Ja
Format settings, QPel : Nein
Format settings, GMC : No warpoints
Format settings, Matrix : Default
Codec ID : XVID
Codec ID/Hint : XviD
Duration : 1h 27min
Bitrate : 976 Kbps
Breite : 640 Pixel
Höhe : 272 Pixel
Bildseitenverhältnis : 2.35
Bildwiederholungsrate : 25.000 FPS
Auflösung : 8 bits
Colorimetry : 4:2:0
Scan type : Progressive
Bits/(Pixel*Frame) : 0.224
Stream size : 610 MiB
verwendete Encoder-Bibliothek : XviD 1.1.2 (UTC 2006-11-01)

Audio
Format : MPEG Audio
Format version : Version 1
Format profile : Layer 3
Codec ID : 55
Codec ID/Hint : MP3
Duration : 1h 27min
Bitraten-Modus : Variable
Bitrate : 130 Kbps
Minimum bit rate : 136 Kbps
Kanäle : 2 Kanäle
Samplingrate : 48.0 KHz
Auflösung : 16 bits
Stream size : 81.5 MiB
verwendete Encoder-Bibliothek : LAME3.97b
Kodierungseinstellungen : ABR

related torrents

Torrent name

health leech seeds Size
 

comments (0)

Main Menu