Anime - Other

Mila Superstar ,1 von 5 , deutsch , Avi [mnvv2 ws]

  • Download 5x Faster
  • Download torrent
  • Direct Download
  • Rate this torrent +  |  -
Mila Superstar ,1 von 5 , deutsch , Avi [mnvv2 ws]

Anonymous and Free Direct Download 300GB+


Torrent info

Name:Mila Superstar ,1 von 5 , deutsch , Avi [mnvv2 ws]

Total Size: 4.28 GB

Magnet: Magnet Link

Seeds: 0

Leechers: 0

Stream: Watch Online @ Movie4u

Last Updated: 2010-07-19 11:22:26 (Update Now)

Torrent added: 2009-09-09 23:50:10



VPN For Torrents

Torrent Files List


000_-_Opening[3DA576F1].avi (Size: 4.28 GB) (Files: 26)

 000_-_Opening[3DA576F1].avi

11.60 MB

 000_-_Short_Ending[8D8B59F0].avi

1.40 MB

 001_-_Die_Neue[6DFE793B].avi

172.62 MB

 002_-_Hartes_Training[5D67D012].avi

172.39 MB

 003_-_Aus_Gegnern_werden_Freunde[E864FF10].avi

172.57 MB

 004_-_Boeses_Erwachen[1B1D5DF9].avi

172.60 MB

 005_-_Der_neue_Trainer[0153B8EE].avi

172.67 MB

 006_-_Wendung_zum_Guten[85453572].avi

172.85 MB

 007_-_Ein_guter_Vorsatz[B4337A43].avi

172.73 MB

 008_-_Das_fallende_Blatt[3F6AE37E].avi

185.89 MB

 009_-_Ueberredungsversuche[6ACBECEA].avi

185.94 MB

 010_-_Eine_schleichende_Verschwoerung[5552AAFA].avi

185.91 MB

 011_-_Aus_und_vorbei[1C34324E].avi

185.86 MB

 012_-_Das_vergessene_Geschenk[92E8F843].avi

185.96 MB

 013_-_Taktik_ohne_Taktik[801A5C0C].avi

185.82 MB

 014_-_Auszeit[70292D7C].avi

186.54 MB

 015_-_Die_Schattenseiten_des_Siegs[CE54B387].avi

186.37 MB

 016_-_Keine_Entscheidung[B7CCA35D].avi

186.42 MB

 017_-_Sieg_ist_nicht_alles[F20A46A0].avi

186.10 MB

 018_-_Das_Supertraining[19EEB21B].avi

186.55 MB

 019_-_Fehler_und_Einsichten[F769E6CE].avi

186.48 MB

 020_-_Neue_Aufgaben[1041C7B4].avi

186.14 MB

 021_-_Zugfahrt_mit_Hindernissen[C154BC38].avi

186.44 MB

 022_-_Saltoannahme[3B35B7B2].avi

185.69 MB

 023_-_Leichtes_Spiel[809B65F6].avi

186.35 MB

 024_-_Wer_Haette_das_Gedacht[E465290C].avi

186.03 MB
 

Announce URL: http://mnvv2.ws/announce.php

Torrent description

Mila.Superstar.,1.von.5.,.deutsch.,.Avi
Format : AVI
Format/Info : Audio Video Interleave
Dateigre : 173 MiB
Duration : 21min
Gesamte Bitrate : 1 135 Kbps
Verwendetes Programm : MEncoder 1.0rc1-3.4.6
verwendete Encoder-Bibliothek : MPlayer

Video
Format : MPEG-4 Visual
Format profile : Streaming [email protected]
Format settings, BVOP : Ja
Format settings, QPel : Nein
Format settings, GMC : No warppoints
Format settings, Matrix : Default
Codec ID : XVID
Codec ID/Hint : XviD
Duration : 21min
Bitrate : 994 Kbps
Breite : 768 Pixel
Höhe : 576 Pixel
Bildseitenverhältnis : 4/3
Bildwiederholungsrate : 25,000 FPS
Auflösung : 24 bits
Colorimetry : 4:2:0
Scan type : Progressive
Bits/(Pixel*Frame) : 0.090
Stream size : 151 MiB (88)
verwendete Encoder-Bibliothek : XviD 1.1.0 (UTC 2005-11-22)

Audio
Format : MPEG Audio
Format version : Version 1
Format profile : Layer 3
Codec ID : 55
Codec ID/Hint : MP3
Duration : 21min
Bitraten-Modus : Constant
Bitrate : 128 Kbps
Kanäle : 2 Kanäle
Samplingrate : 48,0 KHz
Auflösung : 16 bits
Stream size : 19,5 MiB (11)
Alignment : Aligned on interleaves
Interleave, duration : 24 ms (0,60 video frame)
Interleave, preload duration : 504 ms

-
Handlung:

Zu Beginn ist Mila zwölf Jahre alt und wohnt in Fujimi und besucht dort auch die Fujimi High School. Aufgrund ihrer schweren Lungenkrankheit (vermutlich Tuberkulose, da nach Schatten auf der Lunge gesucht wird) ist sie von Tokio dorthin gezogen und soll dort genesen. Zuerst lebte sie dort bei ihrem Onkel und dessen Frau. Milas Vater wird allerdings beruflich auch nach Fujimi versetzt.

Ihre grte Leidenschaft ist Volleyball und ihr Ziel ist es, die beste Spielerin bzw. Angreiferin (Attack No. 1) der Welt zu werden. Nachdem ihre völlige Genesung festgestellt wird, steht dem zumindest theoretisch nichts mehr im Wege. Zunächst allerdings ist das ein harter und auch steiniger Weg, aber mit ihrem Ehrgeiz schafft sie dies, auch wenn die Situationen für sie manchmal aussichtslos erscheinen. Oft versinkt sie in Selbstmitleid, hilft sich aber immer selbst weiter und gibt niemals auf

related torrents

Torrent name

health leech seeds Size
 


comments (0)

Main Menu