Documentary

ANNUNAKI HUMAN ORIGINS POLE SHIFT 2012 (PACK 7) (4 02GB) YouRmomSnutZ nfo

  • Download 5x Faster
  • Download torrent
  • Direct Download
  • Rate this torrent +  |  -
ANNUNAKI HUMAN ORIGINS POLE SHIFT 2012 (PACK 7) (4 02GB) YouRmomSnutZ nfo

Free and Direct Download with Usenet.nl 300GB+ free


Torrent info

Name:ANNUNAKI HUMAN ORIGINS POLE SHIFT 2012 (PACK 7) (4 02GB) YouRmomSnutZ nfo

Total Size: 4.03 GB

Magnet: Magnet Link

Seeds: 3

Leechers: 2

Stream: Watch Online @ Movie4u

Last Updated: 2010-11-25 07:04:11 (Update Now)

Torrent added: 2009-09-09 19:40:15





Torrent Files List


A View From Space.Gary Bell.01-03-2009.2h27m (Size: 4.03 GB) (Files: 185)

 A View From Space.Gary Bell.01-03-2009.2h27m

  2009-01-03-space.mp3

25.35 MB

  New Text Document.txt

0.12 KB

 Braidey & Mowgli - Double Martini.1997.side a&b

  Braidey - Double Martini.1997_a.mp3

48.23 MB

  braidey_martini.jpg

115.11 KB

  martini_sleeve.jpg

242.08 KB

  Mowgli - Double Martini.1997_b.mp3

54.98 MB

  mowgli_martini.jpg

121.03 KB

  New Text Document.txt

0.64 KB

 Coast to Coast - Aug 10 2008.Psychology of Disaster.4h

  Aug 10th.txt

1.33 KB

  Coast to Coast - Aug 10 2008 - Hour 1.mp3

13.85 MB

  Coast to Coast - Aug 10 2008 - Hour 2.mp3

13.32 MB

  Coast to Coast - Aug 10 2008 - Hour 3.mp3

13.46 MB

  Coast to Coast - Aug 10 2008 - Hour 4.mp3

13.21 MB

 Coast to Coast - Aug 14 2008.The 4th Reich in America.4h

  Aug 14th.txt

3.33 KB

  Coast to Coast - Aug 14 2008 - Hour 1.mp3

13.20 MB

  Coast to Coast - Aug 14 2008 - Hour 2.mp3

13.18 MB

  Coast to Coast - Aug 14 2008 - Hour 3.mp3

13.46 MB

  Coast to Coast - Aug 14 2008 - Hour 4.mp3

12.48 MB

 Coast to Coast - Aug 18 2008.The Dark Star & Planet X.Andy Lloyd.4h

  Aug 18th.txt

1.33 KB

  Coast to Coast - Aug 18 2008 - Hour 1.mp3

13.33 MB

  Coast to Coast - Aug 18 2008 - Hour 2.mp3

13.59 MB

  Coast to Coast - Aug 18 2008 - Hour 3.mp3

13.23 MB

  Coast to Coast - Aug 18 2008 - Hour 4.mp3

12.78 MB

 Coast to Coast - Coming Polar Shift.Jan 11 2009.4h

  Coast to Coast - Jan 11 2009 - Hour 1.mp3

13.53 MB

  Coast to Coast - Jan 11 2009 - Hour 2.mp3

13.34 MB

  Coast to Coast - Jan 11 2009 - Hour 3.mp3

13.00 MB

  Coast to Coast - Jan 11 2009 - Hour 4.mp3

13.12 MB

  Coming Polar Shift.txt

0.44 KB

 Coast to Coast - Jordan Maxwell.Aug 06 2008.4h

  Aug 6th.txt

1.49 KB

  Coast to Coast - Aug 06 2008 - Hour 1.mp3

13.45 MB

  Coast to Coast - Aug 06 2008 - Hour 2.mp3

13.17 MB

  Coast to Coast - Aug 06 2008 - Hour 3.mp3

13.38 MB

  Coast to Coast - Aug 06 2008 - Hour 4.mp3

12.73 MB

 Coast to Coast - Jul 02 2008.2012 & North Pole Expedition.4h

  Coast to Coast - Jul 02 2008 - Hour 1.mp3

13.37 MB

  Coast to Coast - Jul 02 2008 - Hour 2.mp3

13.15 MB

  Coast to Coast - Jul 02 2008 - Hour 3.mp3

13.18 MB

  Coast to Coast - Jul 02 2008 - Hour 4.mp3

12.72 MB

  Jul 2nd.txt

1.50 KB

 Coast to Coast - Jul 06 2008.The Annunaki & Humankind.4h

  Coast to Coast - Jul 06 2008 - Hour 1.mp3

13.47 MB

  Coast to Coast - Jul 06 2008 - Hour 2.mp3

13.25 MB

  Coast to Coast - Jul 06 2008 - Hour 3.mp3

12.93 MB

  Coast to Coast - Jul 06 2008 - Hour 4.mp3

11.51 MB

  Jul 6th.txt

1.16 KB

 Coast to Coast - Jun 30 2008.Earth changes.Hopi prophecy.37m

  Coast to Coast - Jun 30 2008 - Hour 3.mp3

13.04 MB

  Stan Deyo discussed earth changes.txt

0.43 KB

 Coast to Coast AM.03-06-1997 - Deadly Pathogens & Solar Rays - Major Ed Dames - AB SIT Replayed 02-16-2008.4h

  RM & MP3 Splits

   COASTREALPRE20080216.rm

904.97 KB

   COASTREALPRE20080216_CLIP01.rm

2.44 MB

   COASTREALPRE20080216_CLIP02.rm

2.34 MB

   COASTREALPRE20080216_CLIP03.rm

981.89 KB

   COASTREALPRE20080216_CLIP04.rm

226.93 KB

   COASTREALPRE20080216_CLIP05.rm

3.11 MB

   COASTREALPRE20080216_CLIP06.rm

205.36 KB

   COASTREALPRE20080216_CLIP07.rm

3.10 MB

   COASTREALPRE20080216_CLIP08.rm

205.36 KB

   COASTREALPRE20080216_CLIP09.rm

3.13 MB

   COASTREALPRE20080216_CLIP10.rm

264.01 KB

   COASTREALPRE20080216_CLIP11.rm

3.05 MB

   COASTREALPRE20080216_CLIP12.rm

302.42 KB

   COASTREALPRE20080216_CLIP13.rm

3.03 MB

   COASTREALPRE20080216_CLIP14.rm

144.21 KB

   COASTREALPRE20080216_CLIP15.rm

3.17 MB

  03-06-1997 - Deadly Pathogens & Solar Rays - Major Ed Dames - AB SIT Replayed 02-16-2008 1-4.mp3

20.00 MB

  03-06-1997 - Deadly Pathogens & Solar Rays - Major Ed Dames - AB SIT Replayed 02-16-2008 2-4.mp3

20.01 MB

  03-06-1997 - Deadly Pathogens & Solar Rays - Major Ed Dames - AB SIT Replayed 02-16-2008 3-4.mp3

20.02 MB

  03-06-1997 - Deadly Pathogens & Solar Rays - Major Ed Dames - AB SIT Replayed 02-16-2008 4-4.mp3

20.02 MB

 Coast to Coast AM.03-23-2000 - Aliens in the Bible - John Milor - AB SIT Replayed 01-12-2008.4h

  RM & MP3 Splits

   COASTREALPRE20080112.rm

515.60 KB

   COASTREALPRE20080112_CLIP01.rm

2.82 MB

   COASTREALPRE20080112_CLIP02.rm

259.28 KB

   COASTREALPRE20080112_CLIP03.rm

3.05 MB

   COASTREALPRE20080112_CLIP04.rm

474.99 KB

   COASTREALPRE20080112_CLIP05.rm

2.86 MB

   COASTREALPRE20080112_CLIP06.rm

631.37 KB

   COASTREALPRE20080112_CLIP07.rm

2.69 MB

   COASTREALPRE20080112_CLIP08.rm

226.93 KB

   COASTREALPRE20080112_CLIP09.rm

3.11 MB

   COASTREALPRE20080112_CLIP10.rm

226.93 KB

   COASTREALPRE20080112_CLIP11.rm

3.08 MB

   COASTREALPRE20080112_CLIP12.rm

561.27 KB

   COASTREALPRE20080112_CLIP13.rm

2.78 MB

   COASTREALPRE20080112_CLIP14.rm

377.92 KB

   COASTREALPRE20080112_CLIP15.rm

2.93 MB

  03-23-2000 - Aliens in the Bible - John Milor - AB SIT Replayed 01-12-2008 1-4.mp3

20.00 MB

  03-23-2000 - Aliens in the Bible - John Milor - AB SIT Replayed 01-12-2008 2-4.mp3

19.99 MB

  03-23-2000 - Aliens in the Bible - John Milor - AB SIT Replayed 01-12-2008 3-4.mp3

20.01 MB

  03-23-2000 - Aliens in the Bible - John Milor - AB SIT Replayed 01-12-2008 4-4.mp3

20.01 MB

 Coast to Coast AM.04-10-1997 - Reincarnation - Elizabeth Clare Prophet - AB SIT 01-19-2008.4h

  RM & MP3 Splits

   COASTREALPRE20080119.rm

228.07 KB

   COASTREALPRE20080119_CLIP01.rm

3.11 MB

   COASTREALPRE20080119_CLIP02.rm

173.00 KB

   COASTREALPRE20080119_CLIP03.rm

3.13 MB

   COASTREALPRE20080119_CLIP04.rm

135.25 KB

   COASTREALPRE20080119_CLIP05.rm

3.20 MB

   COASTREALPRE20080119_CLIP06.rm

167.61 KB

   COASTREALPRE20080119_CLIP07.rm

3.14 MB

   COASTREALPRE20080119_CLIP08.rm

232.32 KB

   COASTREALPRE20080119_CLIP09.rm

3.10 MB

   COASTREALPRE20080119_CLIP10.rm

2.22 MB

   COASTREALPRE20080119_CLIP11.rm

1.09 MB

   COASTREALPRE20080119_CLIP12.rm

1.83 MB

   COASTREALPRE20080119_CLIP13.rm

1.51 MB

   COASTREALPRE20080119_CLIP14.rm

1.87 MB

   COASTREALPRE20080119_CLIP15.rm

1.43 MB

  04-10-1997 - Reincarnation - Elizabeth Clare Prophet - AB SIT Reaired 01-19-2008 - 1-4.mp3

20.01 MB

  04-10-1997 - Reincarnation - Elizabeth Clare Prophet - AB SIT Reaired 01-19-2008 - 2-4.mp3

20.01 MB

  04-10-1997 - Reincarnation - Elizabeth Clare Prophet - AB SIT Reaired 01-19-2008 - 3-4.mp3

20.01 MB

  04-10-1997 - Reincarnation - Elizabeth Clare Prophet - AB SIT Reaired 01-19-2008 - 4-4.mp3

20.03 MB

 Coast to Coast AM.04-16-2001 - Solar Flares - David Wilcock & Harold Ort - AB SIT Reaired 01-05-2008.4h

  RM & MP3 Splits

   COASTREALPRE20080105.rm

1.45 MB

   COASTREALPRE20080105_CLIP01.rm

2.64 MB

   COASTREALPRE20080105_CLIP02.rm

806.42 KB

   COASTREALPRE20080105_CLIP03.rm

2.93 MB

   COASTREALPRE20080105_CLIP04.rm

548.96 KB

   COASTREALPRE20080105_CLIP05.rm

2.80 MB

   COASTREALPRE20080105_CLIP06.rm

653.40 KB

   COASTREALPRE20080105_CLIP07.rm

3.01 MB

   COASTREALPRE20080105_CLIP08.rm

280.85 KB

   COASTREALPRE20080105_CLIP09.rm

3.05 MB

   COASTREALPRE20080105_CLIP10.rm

408.56 KB

   COASTREALPRE20080105_CLIP11.rm

3.12 MB

   COASTREALPRE20080105_CLIP12.rm

588.23 KB

   COASTREALPRE20080105_CLIP13.rm

2.75 MB

   COASTREALPRE20080105_CLIP14.rm

345.56 KB

   COASTREALPRE20080105_CLIP15.rm

2.97 MB

  04-16-2001 - Solar Flares - David Wilcock & Harold Ort - AB SIT Reaired 01-05-2008 - 1-4.mp3

19.98 MB

  04-16-2001 - Solar Flares - David Wilcock & Harold Ort - AB SIT Reaired 01-05-2008 - 2-4.mp3

20.04 MB

  04-16-2001 - Solar Flares - David Wilcock & Harold Ort - AB SIT Reaired 01-05-2008 - 3-4.mp3

20.02 MB

  04-16-2001 - Solar Flares - David Wilcock & Harold Ort - AB SIT Reaired 01-05-2008 - 4-4.mp3

20.01 MB

 Coast to Coast AM.07-23-1997 - The Day After Roswell with Col. Philip Corso.4h

  AB0723.RA

17.61 MB

  Part 1.mp3

2.89 MB

  Part 1.WMA

1.04 MB

  Part 2.mp3

2.84 MB

  Part 2.WMA

1.05 MB

  Part 3.mp3

8.08 MB

  Part 3.WMA

2.96 MB

  Part 4.mp3

7.59 MB

  Part 4.WMA

2.79 MB

  Part 5.mp3

7.66 MB

  Part 5.WMA

2.81 MB

  Part 6.mp3

7.15 MB

  Part 6.WMA

2.62 MB

  Part 7.mp3

8.38 MB

  Part 7.WMA

3.06 MB

  Part 8.mp3

8.15 MB

  Part 8.WMA

2.96 MB

  Part 9.mp3

8.23 MB

  Part 9.WMA

2.95 MB

 Coast to Coast AM.08-22-1997 - Theoretical Physics - Michio Kaku.4h

  08-22-1997 - Art Bell - Dr. Michio Kaku on Physics.mp3

44.32 MB

  08-22-1997 - Prof. Michio Kaku - Theoretical Physics

18.09 MB

  c2c1997-08-22.1-1.AB.MichioKaku-TheoreticalPhysics.mp3

44.32 MB

  Michio Kaku, Art Bell 082297 Theoretical Physics.mp3

44.32 MB

  Michio Kaku, Art Bell 1997 08 22 Michio Kaku, Theoretical Physics.mp3

44.32 MB

 Coast to Coast AM.11-05-1997 - Awakening to Zero Point - Gregg Braden2h42m

  c2c1997-11-05.1-1.AB.GreggBraden-AwakeningToZeroPoint.mp3

37.21 MB

 Coast to Coast AM.12-01-1997 - Everything You Know is Wrong - Lloyd Pye.2h55m

  c2c1997-12-01.1-1.AB.LloydPye-EverythingYouKnowIsWrong.mp3

40.23 MB

 Coast to Coast AM.Dec 16.2008.The Second Sun.Walter Cruttenden.2h36m

  Coast to Coast - Dec 16 2008 - Hour 1.mp3

13.18 MB

  Coast to Coast - Dec 16 2008 - Hour 2.mp3

13.27 MB

  Coast to Coast - Dec 16 2008 - Hour 3.mp3

12.86 MB

  Coast to Coast - Dec 16 2008 - Hour 4.mp3

12.88 MB

  Info.txt

0.78 KB

 Coast to Coast AM.Graham Hancock,10-23-2002.2h

  10-23-2002 - Graham Hancock 1-2.mp3

9.19 MB

  10-23-2002 - Graham Hancock 2-2.mp3

10.68 MB

 Coast to Coast AM.Jan 04 2009.2012 0mega-Point.2h36m

  Coast to Coast - Jan 04 2009 - Hour 1.mp3

13.58 MB

  Coast to Coast - Jan 04 2009 - Hour 2.mp3

13.23 MB

  Coast to Coast - Jan 04 2009 - Hour 3.mp3

13.07 MB

  Coast to Coast - Jan 04 2009 - Hour 4.mp3

12.60 MB

  New Text Document.txt

0.04 KB

 Earth Under Fire.Galactic Superwaves.Paul LaViolette.VIDEO & AUDIO+PDF.1998.2006.6h

  20050123.RadioOrbit.+.Paul.LaViolette.(01h.50m.49s).mp3

12.69 MB

  20060130.RadioOrbit.+.Paul.LaViolette.(01h.58m.17s).mp3

13.54 MB

  20060131.Rense.+.Paul.LaViolette.+.Earth.Under.Fire.(01h.19m.55s).mp3

9.15 MB

  Cosmic-ray_volleys_from_the_galactic_center_(1986+46p).pdf

4.36 MB

  Earth Under Fire.Survival of the apocalypse.Mythology as Science.1998.avi

561.44 MB

  Evidence_of_high_cosmic_dust_concentrations_in_late_pleistocene_(1984+14p).pdf

1.21 MB

  Galactic_core_explosions_and_the_evolution_of_life_(1990+17p).pdf

4.44 MB

  Megafaunal_extinction_-_supernova_or_galactic_core_outburst_(2008+36p).pdf

1.57 MB

  notes-taken-while-viewing.txt

4.90 KB

 Lloyd Pye.Everything you know is wrong.1999.DVD.2h

  Lloyd Pye - Everything You Know is Wrong.avi

632.84 MB

 Project Camelot Bob Dean Interview.2003.DVDS.2h

  Bob Dean 1.avi

220.00 MB

  Bob Dean 2.avi

126.09 MB

  Bob Dean 3.avi

55.25 MB

  Project Camelot Bob Dean Interview.txt

2.48 KB

 THE GREAT YEAR.2003.DVD.mp4.46m

  hh.jpg

42.41 KB

  The Great Year.mp4

345.24 MB

  The Great Year.txt

4.39 KB

 The Horizon Project Episode1.2006.DVD1h22m

  The Horizon Project.txt

3.05 KB

  TheHorizonProject.ep1.divx

700.45 MB

 YouRmomSnutZ other torrentz

  I Love _Rum' n' _ass.bmp

807.47 KB

  INFO.txt

0.95 KB

 ANNUNAKI HUMAN ORIGINS POLE SHIFT.2012.PACK 7_3.79GB_YouRmomSnutZ.nfo

25.05 KB
 

Announce URL: http://tracker.conspiracycentral.net/announce

Torrent description

ANNUNAKI HUMAN ORIGINS POLE SHIFT.2012.PACK 7_3.79GB_YouRmomSnutZ

------------------------------------------------------------------------->

These are for research ONLY! Not Religious debate!!!
If you have an open mind, you will GO far!!!

---->>> includes:

------------------------------------------------------------------------->
VIDEO:
------------------------------------------------------------------------->

Lloyd Pye.Everything you know is wrong.1999.DVD.2h
http://www.redicecreations.com/article.php?id=3531
http://www.lloydpye.com/A-Literal.htm

Video
Format : MPEG-4 Visual
Format profile : Streaming [email protected]
Format settings, BVOP : Yes
Format settings, QPel : No
Format settings, GMC : No warppoints
Format settings, Matrix : Default
Muxing mode : Packed bitstream
Codec ID : XVID
Codec ID/Hint : XviD
Duration : 1h 58mn
Bit rate : 670 Kbps
Width : 352 pixels
Height : 256 pixels
Display aspect ratio : 1.375
Frame rate : 29.970 fps
Resolution : 24 bits
Colorimetry : 4:2:0
Scan type : Progressive
Bits/(Pixel*Frame) : 0.248
Stream size : 569 MiB (90%)
Writing library : XviD 1.0.3 (UTC 2004-12-20)

Audio
Format : MPEG Audio
Format version : Version 1
Format profile : Layer 3
Codec ID : 55
Codec ID/Hint : MP3
Duration : 1h 58mn
Bit rate mode : Constant
Bit rate : 64.0 Kbps
Channel(s) : 1 channel
Sampling rate : 48.0 KHz
Resolution : 16 bits
Stream size : 54.3 MiB (9%)
Alignment : Aligned on interleaves
Interleave, duration : 33 ms (1.00 video frame)
Interleave, preload duration : 504 ms

------------------------------------------------------------------------->

The Horizon Project Episode1.2006.DVD.1 hr, 22 minutes (Pole Shift)
http://www.thehorizonproject.com/episodes.cfm
The Horizon Project relies on multiple sources for each piece of information from resources past and present. If any information does not agree with the rest, it is resolved by scientific committee with all known information. Never before has a research team with this level of effectiveness and capability been utilized solely for discovering answers to life's most crucial questions. These are but three of over a hundred researchers and contributors.


The Horizon Project uses an unprecedented approach to deciphering the answers behind life's most puzzling questions; breaking through the flawed explanations of fragmented modern theory that compound each year to further mask the truth. See the overwhelming scientific evidence previously lost and re-discover the shocking answers that have been under our noses all along.
No matter your belief system or your professional background; The Horizon Project will change the way you look at everything!

Episode 01 of The Horizon Project begins with a frightening bang. Newly discovered scientific evidence shows that the world as we know it is about to come to an unexpected end; however, knowing what's coming over the horizon is only the tip of the iceberg; understanding WHY presents a picture far greater than you could have imagined.

Global catastrophic events throughout our past have severed the flow of information from one generation to the next, creating permanent gaps in history and knowledge. Civilizations that came before us knew of the upcoming inevitable catastrophe, leaving behind major clues that have just been recently discovered. The knowledge that was once lost is the missing link that provides a clear understanding of how our world truly operates. Ironically, these clues also inform us that time is running out; sooner than you may believe.

Understand what is about to happen but more importantly HOW and WHY. In Episode 01, The Horizon Project Research Team will identify some of the signs that are scattered all over our planet and reveal a shocking truth!

The Horizon Project's charter is to gather and cross-check vast amounts of knowledge in many dozen specialized fields from scientists and researchers around the globe in addition to studying hundreds of historical documents spanning back to the dawn of history. These fields include archeology, geology, astro, geo & quantum physics, ancient languages & civilizations, paleontology, ancient history, genetics and others.

The emphasis is on solving the puzzles that each field is unable to solve individually because of overspecialization and their focus to advance their own specialized knowledge. The knowledge to explain many of these anomalies had been unknowingly found by other fields of study, but the very nature of most commercial research today does not support the unlimited exchange of information between fields since there is no overtly apparent connection between most of them. As a result, these anomalies remain unsolved until now.

By better understanding a much broader scope of scientific research covering many fields of study, and our own history from multiple vantage points, we are able to derive an overall picture of our past. This goal is monumental in scope and ongoing; however, the research has uncovered an unnerving understanding that the world as we know it is about to come to an unexpected end in our near future. The findings will not only shock you, but will change the way you look at life forever!

Video
Format : MPEG-4 Visual
Format settings, BVOP : Yes
Format settings, QPel : No
Format settings, GMC : No warppoints
Format settings, Matrix : Default
Codec ID : DX50
Codec ID/Hint : DivX 5
Duration : 1h 22mn
Bit rate : 1 052 Kbps
Width : 720 pixels
Height : 368 pixels
Display aspect ratio : 1.957
Frame rate : 29.970 fps
Resolution : 24 bits
Colorimetry : 4:2:0
Scan type : Progressive
Bits/(Pixel*Frame) : 0.133
Stream size : 618 MiB (88%)
Title : Video
Writing library : DivX 6.2.5 (UTC 2006-07)

Audio
Format : MPEG Audio
Format version : Version 1
Format profile : Layer 3
Codec ID : 55
Codec ID/Hint : MP3
Duration : 1h 22mn
Bit rate mode : Constant
Bit rate : 128 Kbps
Channel(s) : 2 channels
Sampling rate : 48.0 KHz
Resolution : 16 bits
Stream size : 75.2 MiB (11%)
Alignment : Split accross interleaves
Interleave, duration : 33 ms (1.00 video frame)
Interleave, preload duration : 500 ms
Title : Audio - en
Writing library : LAME3.92

------------------------------------------------------------------------->

Earth Under Fire.Galactic Superwaves.Paul LaViolette.VIDEO & AUDIO+PDF.1998.2006.6h
Earth Under Fire.Survival of the apocalypse.Mythology as Science.1998.avi
Earth is about 23,000 light-years from the center of the galaxy

Sagittarius' arrow misses galactic center by 2.5 degrees of longitude. Was on target around 14,000 BC

Harlow Shapely, Mt. Wilson Observatory, 1917 was off the mark by 3.3 degrees of arc (the ancients are 8x better)

The core of an active galaxy can shine brighter than the galaxy itself. Cosmic ray electrons streaking away from the core at close to the speed of light produce a bluish white light so bright that it masks the light from the spiral arms and surrounding mass of stars. When in an active phase such as this, spiral galaxies are called Seyfert galaxies. Astronomical surveys show that about one spiral galaxy out of every 5-to-7 presently exhibit Seyfert-like characteristics. Astronomers have come to realize that galactic core explosions occur in all spiral galaxies, even our own. And, athough the majority of galaxies have a normal appearance with no sign of major core activity, they are simply galaxies with cores that happen to be in their quiescent phase.

13:15
Blue star
The Hopi people have a legend that there were 3 other worlds before this, the present world. Each of these worlds was terminated by a great catastrophe. The Hopi believe that this ending will be heralded by Sas-qua-so-ha (phonetic) the blue star spirit, and will shine brighter than all the stars in the heavens.

14:00
The cores of distant exploding galaxies are observed to have a bright blue starlike appearance. Since we cannot see the core of our galaxy due to intervening dust clouds, most of the blue light would have come from the cosmic ray electrons emitted from the core. During this 23,000 LY journey to us, these electrons would be generating a bluish light. It would have appeared suddenly without warning, and would hve remained in the sky for several hundred or several thousand years. During this ancient superwave passage, the star studded sky would have been transformed into a ghostly scene of variously shaped amorphous nebulae and dust clouds overlying one another. The Sagittarius-Scorpio region would have taken on an ominous appearance; within minutes of it appearance of blue star, superwave cosmic rays would have begun impacting the solar system's magnetic sheath. This would have caused a network to form of faintly luminous cobweb like filiments stretching outward in the sky from the vicinity of the blue star. Perhaps the most frightening phenomenon to occur at this stage would be the prompt arrival of the electromagnetic pulse, and perhaps shortly afterward, the onslaught of a giant gravity wave with its ensuing crustal torque, earthquakes, and volcanic eruptions.

16:45
Many legends share a common theme of a period of darkness that lasts many generations, and the sun moon and stars become dim or even disappear from view behind dark clouds in the heavens.

17:05
Our solar system is surrounded by a cloud of dust and frozen cometary debris. Normally the solar wind keeps the solar system free of much of this dust. This outward breeze or wind of ionized hydrogen and helium continually emitted by the sun exerts a pressure on these dust particles, keeping them at bay. However, upon its arrival, a superwave cosmic ray volley would have countered the solar wind's expelling action and would have begun to push this dust back into the solar system.

18:35
The Old Testament's portrayal of the Lord as an angry father who inflicts cosmic catastrophe on mankind to punish him for his sins, perhaps originated during the last ice age when humanity endured what may have been the worst global disaster of its entire history.

18:55
Several hundred years after the appaearnce of the blue star, earth observers would have become aware of lighting effects resulting from the superwave's passage throught the galaxie's central bulge. Synchroton radiation [radiation emitted by high-energy charged relativistic particles (as electrons) when they are accelerated by a magnetic field (as in a nebula) emitted by the superwave's cosmic rays would have illuminated the dense gas clouds in the galaxy's nucleus to create an oval luminous form abound the blue star. This apparition would have appeared somewhat like an eye.

21:15
Dr. Paul La Violette first pondered the idea of a galactic superwave in 1979 while studying at Portland State University.
15,860 years ago: a major superwave
Interstellar dust, high in iridium would be found in ice core samples.

28:15
Saturn's ring consist of 100,000s of fine ringlets (indicates the rings are young and haven't had time to smooth out).

Video
Format : MPEG-4 Visual
Format settings, BVOP : No
Format settings, QPel : No
Format settings, GMC : No warppoints
Format settings, Matrix : Default
Codec ID : DX50
Codec ID/Hint : DivX 5
Duration : 53mn 3s
Bit rate : 1 249 Kbps
Width : 720 pixels
Height : 480 pixels
Display aspect ratio : 1.500
Frame rate : 30.000 fps
Standard : NTSC
Resolution : 24 bits
Colorimetry : 4:2:0
Scan type : Progressive
Bits/(Pixel*Frame) : 0.120
Stream size : 474 MiB (84%)
Writing library : DivX 1586

Audio
Format : MPEG Audio
Format version : Version 1
Format profile : Layer 3
Codec ID : 55
Codec ID/Hint : MP3
Duration : 53mn 3s
Bit rate mode : Constant
Bit rate : 224 Kbps
Channel(s) : 2 channels
Sampling rate : 48.0 KHz
Resolution : 16 bits
Stream size : 85.0 MiB (15%)
Alignment : Split accross interleaves
Interleave, duration : 500 ms (14.99 video frames)
Interleave, preload duration : 500 ms

------------------------------------------------------------------------->

Project Camelot Bob Dean Interview.2003.DVDS.2h
We have met many remarkable people in the course of our work for Project Camelot, but meeting Bob Dean
was one of our greatest privileges. As an elder statesman he is charming, eloquent and dashing, and we
are proud to present this as what may be one of our most memorable interviews.

In Part One, Bob shares with us his knowledge of the UFO phenomenon and what he encountered while working
at SHAPE in Europe in the 1960s: an inch and a half thick detailed official report on the extraterrestrial
'problem' called at that time simply "The Assessment". Having the clearance to have free access to the document,
he read it and re-read it many times, and he tells us how that changed his life. Later, after retiring from the
military, he made the courageous decision to defy his Oath of Secrecy and began to speak publicly about what he had learned.

In Part Two of the interview, Bob tells us that this is probably his last interview... and having done so, he pauses,
takes a deep breath, and reveals on record for the first time that he has been contacted, and has been on board the craft.

Video
Format : MPEG-4 Visual
Format profile : [email protected]
Format settings, BVOP : No
Format settings, QPel : No
Format settings, GMC : No warppoints
Format settings, Matrix : Default
Codec ID : XVID
Codec ID/Hint : XviD
Duration :
Bit rate : 379 Kbps
Width : 320 pixels
Height : 240 pixels
Display aspect ratio : 4/3
Frame rate : 29.970 fps
Resolution : 24 bits
Colorimetry : 4:2:0
Scan type : Progressive
Bits/(Pixel*Frame) : 0.165
Stream size : 162 MiB (74%)
Writing library : ZJMedia MPEG Encoder

Audio
Format : MPEG Audio
Format version : Version 1
Format profile : Layer 3
Codec ID : 55
Codec ID/Hint : MP3
Duration :
Bit rate mode : Constant
Bit rate : 128 Kbps
Channel(s) : 2 channels
Sampling rate : 44.1 KHz
Resolution : 16 bits
Stream size : 54.7 MiB (25%)
Alignment : Split accross interleaves
Interleave, duration : 968 ms (29.00 video frames)

------------------------------------------------------------------------->

THE GREAT YEAR.2003.DVD.mp4.46m (Narrated by James Earl Jones)
http://www.thegreatyear.com/
Walter Cruttenden – Walter is a history theorist involved in the study of ancient myth, folklore and megalithic structures. As director of the Binary Research Institute his main focus is the science and celestial mechanics of the precession of the equinox and its link to changes in consciousness over long periods a time. Cruttenden has authored a number of papers and articles on these subjects including the book "Lost Star of Myth and Time," and the award winning documentary, "The Great Year", narrated by James Earl Jones. At CPAK 2008 Walter will give an overview of the cycle of the ages as depicted in Giorgio de Santillana’s and Hertha von Deschend’s “Hamlet’s Mill” and discuss several new finds that display the character of higher age knowledge.

The Great Year, is the term that some ancient civilizations use to describe the slow precession of the equinox through the twelve houses of the ancient zodiac, a period that takes about 24,000 years. Different cultures refer to this cycle by different names including: the Platonic year, Perfect year, Yuga cycle, Ages of Man or just the equinoctial cycle, but one thing is clear, it was known to virtually every ancient culture throughout the globe. In their epic work Hamlet’s Mill Giorgio de Santillana and Hertha von Dechend document the great year tale and point out it was the number one topic woven into myths and folklore around the ancient world. Why were our ancestors so fascinated by this subject that they memorized stories that were passed down for thousands of years and built megalithic structures on every continent to monitor this movement? We think it is because the tales are true! That is, as the Sun curves through space carrying the Earth with it, our bodies and our planet move to a region where they are affected by different cosmic forces that indirectly result in the rise and fall of civilization. As mans consciousness expands and contracts, and the cycle plays out, just like a solar year with its seasons, it results in great ages of enlightenment and dark ages of misery. Indeed, the archaeological record shows a broad decline of ancient civilizations beginning about 5000 years ago, a long world wide dark age and then finally a rise in consciousness with the renaissance continuing to the present day. Were the tales and myths and stone henges really just for amusement and farming? Or is Hamlet’s Mill correct: folklore is the scientific language of ancient times, and they were trying tell us of the dark days to come, and trying desparetly to preserve knowledge in the pyramids and megaliths and temples so carefully aligned to the heavens incorporating sophisticated mathematical principles.This is the story of the Great Year and new scientific evidence to support it. Recent solar system studies seem to indicate that precession is indeed caused by a curving motion of our sun through space. While not yet widely accepted, if true it a startling finding confirming the wisdom of the ancients.

Video
Format : AVC
Format/Info : Advanced Video Codec
Format profile : [email protected]
Format settings, CABAC : Yes
Format settings, ReFrames : 1 frame
Codec ID : avc1
Codec ID/Info : Advanced Video Coding
Duration : 46mn 2s
Bit rate mode : Variable
Bit rate : 916 Kbps
Width : 720 pixels
Height : 480 pixels
Display aspect ratio : 4/3
Frame rate mode : Constant
Frame rate : 29.970 fps
Standard : NTSC
Resolution : 24 bits
Colorimetry : 4:2:0
Scan type : Progressive
Bits/(Pixel*Frame) : 0.088
Stream size : 301 MiB (87%)
Encoded date : UTC 1970-01-01 00:00:00
Tagged date : UTC 1970-01-01 00:00:00

Audio
Format : AAC
Format/Info : Advanced Audio Codec
Format version : Version 4
Format profile : LC
Format settings, SBR : No
Codec ID : 40
Duration : 46mn 2s
Bit rate mode : Variable
Bit rate : 128 Kbps
Channel(s) : 2 channels
Channel positions : L R
Sampling rate : 48.0 KHz
Resolution : 16 bits
Stream size : 42.1 MiB (12%)
Encoded date : UTC 1970-01-01 00:00:00
Tagged date : UTC 1970-01-01 00:00:00

------------------------------------------------------------------------->
AUDIO:
------------------------------------------------------------------------->

A View From Space.Gary Bell.01-03-2009.2h27m:
Symbolism of the color red. End time prophecy's illuminati world collapse

Coast to Coast - Aug 10 2008.Psychology of Disaster.4h

Coast to Coast - Aug 14 2008.The 4th Reich in America.4h

Coast to Coast - Aug 18 2008.The Dark Star & Planet X.Andy Lloyd.4h

Coast to Coast - Coming Polar Shift.Jan 11 2009.4h

Coast to Coast - Jordan Maxwell.Aug 06 2008.4h

Coast to Coast - Jul 02 2008.2012 & North Pole Expedition.4h

Coast to Coast - Jul 06 2008.The Annunaki & Humankind.4h

Coast to Coast - Jun 30 2008.Earth changes.Hopi prophecy.37m

Coast to Coast AM.03-06-1997 - Deadly Pathogens & Solar Rays - Major Ed Dames - AB SIT Replayed 02-16-2008.4h

Coast to Coast AM.03-23-2000 - Aliens in the Bible - John Milor - AB SIT Replayed 01-12-2008.4h

Coast to Coast AM.04-10-1997 - Reincarnation - Elizabeth Clare Prophet - AB SIT 01-19-2008.4h

Coast to Coast AM.04-16-2001 - Solar Flares - David Wilcock & Harold Ort - AB SIT Reaired 01-05-2008.4h

Coast to Coast AM.07-23-1997 - The Day After Roswell with Col. Philip Corso.4h

Coast to Coast AM.08-22-1997 - Theoretical Physics - Michio Kaku.4h

Coast to Coast AM.11-05-1997 - Awakening to Zero Point - Gregg Braden2h42m

Coast to Coast AM.12-01-1997 - Everything You Know is Wrong - Lloyd Pye.2h55m

Coast to Coast AM.Dec 16.2008.The Second Sun.Walter Cruttenden.2h36m

Coast to Coast AM.Graham Hancock,10-23-2002.2h

Coast to Coast AM.Jan 04 2009.2012 0mega-Point.2h36m

20050123.RadioOrbit.+.Paul.LaViolette.(01h.50m.49s).mp3

20060130.RadioOrbit.+.Paul.LaViolette.(01h.58m.17s).mp3

20060131.Rense.+.Paul.LaViolette.+.Earth.Under.Fire.(01h.19m.55s).mp3

Braidey & Mowgli - Double Martini.1997.side a&b
KILLER DRUM AND BASS SET!!

Audio
Format : MPEG Audio
Format version : Version 1
Format profile : Layer 3
Duration : 30mn 5s
Bit rate mode : Constant
Bit rate : 224 Kbps
Channel(s) : 2 channels
Sampling rate : 44.1 KHz
Resolution : 16 bits

------------------------------------------------------------------------->
PDF:
------------------------------------------------------------------------->

Cosmic-ray_volleys_from_the_galactic_center_(1986+46p).pdf

Evidence_of_high_cosmic_dust_concentrations_in_late_pleistocene_(1984+14p).pdf

Galactic_core_explosions_and_the_evolution_of_life_(1990+17p).pdf

Megafaunal_extinction_-_supernova_or_galactic_core_outburst_(2008+36p).pdf

------------------------------------------------------------------------->


SEED YE SALTY DOGS SEED!! DONT HIT N RUN YE DARN PIRATES
AND SAY THANKS IF YA LIKE IT!

Runnin-RED..Forward......WE flex for Planet X
Runnin-RED..Forward......WE flex for Planet X
Mindscape-Planet X (thanks to Attrition)
Drum&Bass (SONG) Come listen: http://www.bassdrive.com/v2/

------------------------------------------------------------------------->

These are for research ONLY! Not religious debate!!!
If you have an open mind, you will GO far!!!


Much Thanks to conspiracycentral.net/mininova.org/h33t.com and all the People Who took the tedious time and patience to collect all this INFO/Pics & Research Material!!
YouRmomSnutZ


Much thanks to the original people who uped these!!! YOu who help me on my journey!!


We WANT to:
Gather and cross-check vast amounts of knowledge in many dozen specialized fields from scientists and researchers around the globe in addition to studying hundreds of historical documents spanning back to the dawn of history. These fields include archeology, geology, astro, geo & quantum physics, ancient languages & civilizations, paleontology, ancient history, genetics and others.

related torrents

Torrent name

health leech seeds Size
 

comments (0)

Main Menu