Drama

THE RIDDLE 2009 [DVDRIP][ENG]

  • Download 5x Faster
  • Download torrent
  • Direct Download
  • Rate this torrent +  |  -
THE RIDDLE 2009 [DVDRIP][ENG]

Download FREE And Anonymously


Torrent info

Name:THE RIDDLE 2009 [DVDRIP][ENG]

Total Size: 699.78 MB

Magnet: Magnet Link

Seeds: 0

Leechers: 0

Stream: Watch Full Movie @ Movie4u

Last Updated: 2010-08-13 16:25:36 (Update Now)

Torrent added: 2009-09-09 19:32:23



VPN For Torrents

Torrent Files List


895899_DV_L_B.JPG (Size: 699.78 MB) (Files: 3)

 895899_DV_L_B.JPG

35.10 KB

 895899_DV_L_F.JPG

29.88 KB

 TRIDDLE.avi

699.72 MB
 

Announce URL: http://teamfx.org/announce.php

Torrent description

Starring action star Vinnie Jones and an award winning host of cinema's most acclaimed acting legends, The Riddle is a lightning paced, action packed thriller in a class of its own.

After a string of killings send shockwaves through London, reporter Mike Sullivan is spurred into action to catch the diabolical killer in this devious supernatural mystery.

But to stop the killings, he first must solve a century old murder hidden inside the pages of a newly discovered manuscript by legendary author, Charles Dickens. But this is no ordinary manuscript: It's steeped in greed, betrayal and murder.

General

Format : AVI
Format/Info : Audio Video Interleave
File size : 700 MiB
Duration : 1h 54mn
Overall bit rate : 852 Kbps


Video
Format : MPEG-4 Visual
Format profile : Streaming [email protected]
Format settings, BVOP : Yes
Format settings, QPel : No
Format settings, GMC : No warppoints
Format settings, Matrix : Default
Muxing mode : Packed bitstream
Codec ID : XVID
Codec ID/Hint : XviD
Duration : 1h 54mn
Bit rate : 714 Kbps
Width : 528 pixels
Height : 288 pixels
Display aspect ratio : 16/9
Frame rate : 25.000 fps
Resolution : 24 bits
Colorimetry : 4:2:0
Scan type : Progressive
Bits/(Pixel*Frame) : 0.188
Stream size : 587 MiB (84%)
Writing library : XviD 1.2.0.dev47 (UTC 2006-11-01)

Audio
Format : MPEG Audio
Format version : Version 1
Format profile : Layer 3
Codec ID : 55
Codec ID/Hint : MP3
Duration : 1h 54mn
Bit rate mode : Constant
Bit rate : 128 Kbps
Minimum bit rate : 128 Kbps
Channel(s) : 2 channels
Sampling rate : 48.0 KHz
Resolution : 16 bits
Stream size : 105 MiB (15%)
Alignment : Aligned on interleaves
Interleave, duration : 40 ms (1.00 video frame)
Interleave, preload duration : 504 ms
Writing library : LAME3.97
Encoding settings : CBR

related torrents

Torrent name

health leech seeds Size
 


comments (0)

Main Menu

 

script data-cfasync="false" src="//d2ghscazvn398x.cloudfront.net/?cshgd=690275">