Documentary

HISTORY CHANNEL GOLD! THE GOLD WARS [abo shreek11]

  • Download 5x Faster
  • Download torrent
  • Direct Download
  • Rate this torrent +  |  -
HISTORY CHANNEL GOLD! THE GOLD WARS [abo shreek11]

Free and Direct Download with Usenet.nl 300GB+ free


Torrent info

Name:HISTORY CHANNEL GOLD! THE GOLD WARS [abo shreek11]

Total Size: 437.03 MB

Magnet: Magnet Link

Seeds: 0

Leechers: 0

Stream: Watch Online @ Movie4u

Last Updated: 0000-00-00 00:00:00 (Update Now)

Torrent added: 2009-09-09 17:35:54





Torrent Files List


HISTORY CHANNEL - GOLD! THE GOLD WARS [abo_shreek11].avi (Size: 437.03 MB) (Files: 2)

 HISTORY CHANNEL - GOLD! THE GOLD WARS [abo_shreek11].avi

437.03 MB

 HISTORY CHANNEL - GOLD! THE GOLD WARS [abo_shreek11].nfo

2.37 KB
 

Announce URL:

Torrent description

General
Complete name : HISTORY CHANNEL - GOLD! THE GOLD WARS [abo_shreek11].avi
Recorded By : [email protected]
Format : AVI
Format/Info : Audio Video Interleave
File size : 437 MiB
Duration : 40mn 51s
Overall bit rate : 1 496 Kbps

Video
Format : MPEG-4 Visual
Format profile : [email protected]
Format settings, BVOP : Yes
Format settings, QPel : No
Format settings, GMC : No warppoints
Format settings, Matrix : Default
Codec ID : DX50
Codec ID/Hint : DivX 5
Duration : 40mn 51s
Bit rate : 1 227 Kbps
Width : 768 pixels
Height : 576 pixels
Display aspect ratio : 4/3
Frame rate : 25.000 fps
Resolution : 24 bits
Scan type : Progressive
Bits/(Pixel*Frame) : 0.111
Stream size : 358 MiB (82%)
Writing library : ivx5.3

Audio
Format : MPEG Audio
Format version : Version 1
Format profile : Layer 3
Codec ID : 55
Codec ID/Hint : MP3
Duration : 40mn 51s
Bit rate mode : Constant
Bit rate : 256 Kbps
Channel(s) : 2 channels
Sampling rate : 48.0 KHz
Resolution : 16 bits
Stream size : 74.8 MiB (17%)
Alignment : Aligned on interleaves
Interleave, duration : 24 ms (0.60 video frame)
Interleave, preload duration : 24 ms

From Jason to the Nazis, the greedy pursuit of gold has sometimes been at the cost of millions of lives.

related torrents

Torrent name

health leech seeds Size
 

comments (0)

Main Menu