Documentary

See More Buds Vol 1 2 And 3 Mazysmadhouse net

  • Download 5x Faster
  • Download torrent
  • Direct Download
  • Rate this torrent +  |  -
See More Buds Vol 1 2 And 3 Mazysmadhouse net

Free and Direct Download with Usenet.nl 300GB+ free


Torrent info

Name:See More Buds Vol 1 2 And 3 Mazysmadhouse net

Total Size: 1.86 GB

Magnet: Magnet Link

Seeds: 0

Leechers: 0

Stream: Watch Online @ Movie4u

Last Updated: 2010-11-12 19:20:49 (Update Now)

Torrent added: 2009-09-09 16:54:41





Torrent Files List


FEAR420-See.More.Buds.Vol1-3.nfo (Size: 1.86 GB) (Files: 25)

 FEAR420-See.More.Buds.Vol1-3.nfo

9.91 KB

 See More Buds.sfv

1.50 KB

 See.More.Buds-1

  See More Buds.part1.rar

95.78 MB

  See More Buds.part2.rar

95.78 MB

  See More Buds.part3.rar

95.78 MB

  See More Buds.part4.rar

95.78 MB

  See More Buds.part5.rar

95.78 MB

  See More Buds.part6.rar

39.63 MB

 See.More.Buds-2

  See More Buds 2.part1.rar

95.78 MB

  See More Buds 2.part2.rar

95.78 MB

  See More Buds 2.part3.rar

95.78 MB

  See More Buds 2.part4.rar

95.78 MB

  See More Buds 2.part5.rar

95.78 MB

  See More Buds 2.part6.rar

95.78 MB

  See More Buds 2.part7.rar

95.78 MB

  See More Buds 2.part8.rar

28.18 MB

 See.More.Buds.Vol.3.Perfect.Garden

  See.More.Buds.Vol.3.Perfect.Garden.DVDRip.XviD.part1.rar

95.78 MB

  See.More.Buds.Vol.3.Perfect.Garden.DVDRip.XviD.part2.rar

95.78 MB

  See.More.Buds.Vol.3.Perfect.Garden.DVDRip.XviD.part3.rar

95.78 MB

  See.More.Buds.Vol.3.Perfect.Garden.DVDRip.XviD.part4.rar

95.78 MB

  See.More.Buds.Vol.3.Perfect.Garden.DVDRip.XviD.part5.rar

95.78 MB

  See.More.Buds.Vol.3.Perfect.Garden.DVDRip.XviD.part6.rar

95.78 MB

  See.More.Buds.Vol.3.Perfect.Garden.DVDRip.XviD.part7.rar

95.78 MB

  See.More.Buds.Vol.3.Perfect.Garden.DVDRip.XviD.part8.rar

15.10 MB

  SeeMoreBuds Vol3.jpg

44.11 KB
 

Announce URL: http://mazysmadhouse.net/announce.php?passkey=tssespecialtorrentv1byxamsep2007

Torrent description

See.More.Buds.Vol 1,2,And 3



SeeMoreBuds - Watch as a veteran marijuana grower shows you how to set up three simple rooms.



Harvesting an Amazing 15 Pounds in 80 days. That's 60+ lbs a year!!!



Everything you will see is easily replicated. Watch as a master grower addresses the following issues:



* Nutrients: The Perfect Mixture

* Ventilation: Managing Heat (A real Trick with 11

High Pressure Sodium bulbs)

* Lighting: Fluorescent and HPS

* Clones: Increased Success Rate

* Harvest: Curing The Correct Way

* Bugs: Prevention And Eradication

....and Much More....



If you are going to grow marijuana, you must see this DVD. SeeMoreBuds has come out to share and dispell the myths, "that growing is hard".



SeeMoreBuds reveals a simple "add water" technique that produces some of the biggest yields and kindest herb of modern times.



SeeMoreBuds - Vol.2



SeeMoreBuds Volume 2 is the ultimate tour of 6 different grows. SeeMoreBuds visits Indoor, outdoor, hydroponic, aeroponic, and soil gardens. You will witness fluorescent lighting and High Intensity Discharge lighting (High Pressure Sodium, Metal Halide) gardens of all sizes.



Learn about cannabis growing from not just one gardener but 6 different gardeners. Access to your peers' gardens is very limited…



SeeMoreBuds has opened the door for you. After watching this video the beginning grower will have a clear idea of the many possibilities available to him/her. The advanced grower will learn from the many details and nuances that SeeMoreBuds points out as you tour these 6 gardens. SeeMoreBuds will show you what these gardeners are doing correctly and what they can do to improve.



“This is better than a 1 year subscription to the magazines”

Julian Costa - Santa Barbara, CA



Some of the key elements in SeeMoreBuds Volume 2:



1. Learn how to grow big buds in a small garden

2. Learn different cloning techniques

3. How to make a perpetual harvest of non-stop buds

4. Proper watering technique that makes transplanting obsolete

5. Predators of the garden and how to fight them as never seen before

6. How to sex a plant (extreme close up macro shots)

7. 6 different set ups of all different sizes, from basements to closets

8. Easy winning soil mixtures

9. Detailed DVD menu to jump to your favorite garden

10. Access to so many gardens with SeeMoreBuds as your tour guide!

11. Indoor, Outdoor, Aeroponic, Hydroponic gardens



SeeMoreBuds - The Perfect Garden



SeeMoreBuds has been the most prolific presenter of marijuana gardens in the past 4 years. SeeMore brings you 8 new fabulous gardens, in one DVD, including, THE PERFECT GARDEN.



With unprecedented access, SeeMore examines 8 never before filmed or photographed gardens. SeeMore gives you intimate access into the workings of these gardens. Whether it is the 11,000 watt mega garden or the 2400 watt medical grow room, SeeMore shows, explains and reveals these gardens with both great verbal and visual articulation.



Never before have so many underground gardens been so accessible to the public! No other DVD, MAGAZINE, or BOOK shows this many plants, this many grow rooms, or this much insight into cannabis cultivation. If your goal is to learn the fundamentals of setting up a grow room and then using that grow room to get massive yields, this is the DVD for you.



“A 12 month subscription to any of the numerous cannabis magazines did not inspire me as much as The Perfect Garden”

Harper - Humbolt County, California



&&&&&&&&&&&&&&&&&&&&&&&&&&&&&&&&&&&&&&&&&&&&&&&&&&&&&



General

Complete name : E:DrugsGrow VidsSee.More.Buds-Vol.1-3See More Buds.avi

Format : AVI

Format/Info : Audio Video Interleave

File size : 519 MiB

Duration : 37mn 52s

Overall bit rate : 1 914 Kbps



Video

Format : MPEG-4 Visual

Format profile : [email protected]

Format settings, BVOP : Yes

Format settings, QPel : No

Format settings, GMC : No warppoints

Format settings, Matrix : Default

Muxing mode : Packed bitstream

Codec ID : XVID

Codec ID/Hint : XviD

Duration : 37mn 51s

Bit rate : 1 778 Kbps

Width : 720 pixels

Height : 480 pixels

Display aspect ratio : 1.500

Frame rate : 29.970 fps

Original frame rate : 25.000 fps

Standard : NTSC

Resolution : 24 bits

Colorimetry : 4:2:0

Scan type : Progressive

Bits/(Pixel*Frame) : 0.172

Stream size : 482 MiB (93%)

Writing library : XviD 1.1.0 Beta2 (UTC 2005-04-04)



Audio

Format : MPEG Audio

Format version : Version 1

Format profile : Layer 3

Codec ID : 55

Codec ID/Hint : MP3

Duration : 37mn 52s

Bit rate mode : Constant

Bit rate : 128 Kbps

Channel(s) : 2 channels

Sampling rate : 44.1 KHz

Resolution : 16 bits

Stream size : 34.7 MiB (7%)

Alignment : Split accross interleaves

Interleave, duration : 1000 ms (29.96 video frames)

Interleave, preload duration : 750 ms





General

Complete name : E:DrugsGrow VidsSee.More.Buds-Vol.1-3See More Buds 2.avi

Format : AVI

Format/Info : Audio Video Interleave

File size : 699 MiB

Duration : 1h 8mn

Overall bit rate : 1 435 Kbps

Writing application : FairUse Wizard - http://fairusewizard.com

Writing library : The best and REALLY easy backup tool



Video

Format : MPEG-4 Visual

Format profile : Streaming [email protected]

Format settings, BVOP : Yes

Format settings, QPel : No

Format settings, GMC : No warppoints

Format settings, Matrix : Default

Muxing mode : Packed bitstream

Codec ID : XVID

Codec ID/Hint : XviD

Duration : 1h 8mn

Bit rate : 1 296 Kbps

Width : 560 pixels

Height : 400 pixels

Display aspect ratio : 1.400

Frame rate : 29.970 fps

Resolution : 24 bits

Colorimetry : 4:2:0

Scan type : Progressive

Bits/(Pixel*Frame) : 0.193

Stream size : 631 MiB (90%)

Writing library : XviD 1.2.0.dev47 (UTC 2006-11-01)



Audio

Format : MPEG Audio

Format version : Version 1

Format profile : Layer 3

Codec ID : 55

Codec ID/Hint : MP3

Duration : 1h 8mn

Bit rate mode : Constant

Bit rate : 128 Kbps

Minimum bit rate : 128 Kbps

Channel(s) : 2 channels

Sampling rate : 48.0 KHz

Resolution : 16 bits

Stream size : 62.3 MiB (9%)

Alignment : Aligned on interleaves

Interleave, duration : 33 ms (1.00 video frame)

Interleave, preload duration : 504 ms

Writing library : LAME3.97

Encoding settings : CBR





General

Complete name : E:DrugsGrow VidsSee.More.Buds-Vol.1-3See.More.Buds.Vol.3.Perfect.Garden.DVDRip.XviD.avi

Format : AVI

Format/Info : Audio Video Interleave

File size : 686 MiB

Duration : 1h 11mn

Overall bit rate : 1 341 Kbps



Video

Format : MPEG-4 Visual

Format profile : [email protected]

Format settings, BVOP : No

Format settings, QPel : No

Format settings, GMC : No warppoints

Format settings, Matrix : Default

Codec ID : XVID

Codec ID/Hint : XviD

Duration : 1h 11mn

Bit rate : 1 200 Kbps

Width : 640 pixels

Height : 480 pixels

Display aspect ratio : 4/3

Frame rate : 29.970 fps

Original frame rate : 29.969 fps

Resolution : 24 bits

Colorimetry : 4:2:0

Scan type : Progressive

Bits/(Pixel*Frame) : 0.130

Stream size : 613 MiB (89%)

Writing library : Magic0432



Audio

Format : MPEG Audio

Format version : Version 1

Format profile : Layer 3

Codec ID : 55

Codec ID/Hint : MP3

Duration : 1h 11mn

Bit rate mode : Constant

Bit rate : 128 Kbps

Channel(s) : 2 channels

Sampling rate : 44.1 KHz

Resolution : 16 bits

Stream size : 65.4 MiB (10%)

Alignment : Aligned on interleaves

Interleave, duration : 26 ms (0.78 video frame)

related torrents

Torrent name

health leech seeds Size
 

comments (0)

Main Menu