Horror

IDENTITY BRRIP XVID BDK [teamfx org]

  • Download 5x Faster
  • Download torrent
  • Direct Download
  • Rate this torrent +  |  -
IDENTITY BRRIP XVID BDK [teamfx org]

Anonymous and Free Direct Download


Torrent info

Name:IDENTITY BRRIP XVID BDK [teamfx org]

Total Size: 1.33 GB

Magnet: Magnet Link

Seeds: 0

Leechers: 0

Stream: Watch Online @ Movie4u

Last Updated: 2009-12-25 16:58:26 (Update Now)

Torrent added: 2009-09-09 16:16:44



VPN For Torrents

Torrent Files List


identity xvid.part21.rar (Size: 1.33 GB) (Files: 31)

 identity xvid.part21.rar

46.73 MB

 identity xvid.part04.rar

46.73 MB

 identity xvid.part13.rar

46.73 MB

 identity xvid.part15.rar

46.73 MB

 identity xvid.part26.rar

46.73 MB

 identity xvid.part27.rar

46.73 MB

 identity xvid.part12.rar

46.73 MB

 identity xvid.part05.rar

46.73 MB

 identity xvid.part14.rar

46.73 MB

 identity xvid.part07.rar

46.73 MB

 identity xvid.part25.rar

46.73 MB

 identity xvid.part17.rar

46.73 MB

 identity xvid.part23.rar

46.73 MB

 identity xvid.part10.rar

46.73 MB

 identity xvid.part11.rar

46.73 MB

 identity xvid.part09.rar

46.73 MB

 identity xvid.part18.rar

46.73 MB

 identity xvid.part29.rar

32.52 MB

 identity xvid.part28.rar

46.73 MB

 identity xvid.part03.rar

46.73 MB

 identity xvid.part22.rar

46.73 MB

 identity xvid.part19.rar

46.73 MB

 identity xvid.part24.rar

46.73 MB

 identity xvid.part02.rar

46.73 MB

 identity xvid.part16.rar

46.73 MB

 sample

  identity xvid sample.avi

16.42 MB

 identity xvid.part20.rar

46.73 MB

 identity xvid.part08.rar

46.73 MB

 identity xvid.part06.rar

46.73 MB

 identity xvid.part01.rar

46.73 MB

 bigdaddykanes info.NFO

3.13 KB
 

Announce URL: http://teamfx.org/announce.php

Torrent description

[url]http://www.imdb.com/title/tt0309698/[/url]

Release Date:
25 April 2003 (USA)

Genre:
Horror | Mystery | Thriller

Tagline:
The secret lies within.

Plot:
Stranded at a desolate Nevada motel during a nasty rainstorm, ten strangers become acquainted with each other when they realize that they're being killed off one by one.


John Cusack ... Ed
Ray Liotta ... Rhodes
Amanda Peet ... Paris
John Hawkes ... Larry
Alfred Molina ... Dr. Malick
Clea DuVall ... Ginny
John C. McGinley ... George York
William Lee Scott ... Lou
Jake Busey ... Robert Maine
Pruitt Taylor Vince ... Malcolm Rivers
Rebecca De Mornay ... Caroline Suzanne (as Rebecca DeMornay)
Carmen Argenziano ... Defense Lawyer
Marshall Bell ... District Attorney
Leila Kenzle ... Alice York
Matt Letscher ... Assistant District Attorney
Complete name : IDENTITY BRRIP XVID BDKidentity xvid.avi
Format : AVI
Format/Info : Audio Video Interleave
File size : 1.31 GiB
Duration : 1h 30mn
Overall bit rate : 2 086 Kbps
Writing application : VirtualDubMod 1.5.10.2 (build 2540/release)
Writing library : VirtualDubMod build 2540/release

Video
Format : MPEG-4 Visual
Format profile : Streaming [email protected]
Format settings, BVOP : Yes
Format settings, QPel : No
Format settings, GMC : No warppoints
Format settings, Matrix : Custom
Codec ID : XVID
Codec ID/Hint : XviD
Duration : 1h 30mn
Bit rate : 1 437 Kbps
Width : 720 pixels
Height : 304 pixels
Display aspect ratio : 2.35
Frame rate : 23.976 fps
Resolution : 24 bits
Colorimetry : 4:2:0
Scan type : Progressive
Bits/(Pixel*Frame) : 0.274
Stream size : 925 MiB (69%)
Writing library : XviD 1.2.1 (UTC 2008-12-04)

Audio
Format : AC-3
Format/Info : Audio Coding 3
Codec ID : 2000
Duration : 1h 30mn
Bit rate mode : Constant
Bit rate : 640 Kbps
Channel(s) : 6 channels
Channel positions : Front: L C R, Surround: L R, LFE
Sampling rate : 48.0 KHz
Stream size : 412 MiB (31%)
Alignment : Split accross interleaves
Interleave, duration : 42 ms (1.00 video frame)
Interleave, preload duration : 500 ms

related torrents

Torrent name

health leech seeds Size

IDENTITY BRRIP XVID BDK

0 0 1.33 GB 0
 


comments (0)

Main Menu