Drama

Hillary The Movie avi com

  • Download 5x Faster
  • Download torrent
  • Direct Download
  • Rate this torrent +  |  -
Hillary The Movie avi com

Free and Direct Download with Usenet.nl 300GB+ free


Torrent info

Name:Hillary The Movie avi com

Total Size: 689.84 MB

Magnet: Magnet Link

Seeds: 0

Leechers: 0

Stream: Watch Online @ Movie4u

Last Updated: 2010-08-05 12:51:07 (Update Now)

Torrent added: 2009-09-09 16:11:22





Torrent Files List


Hillary - The Movie.avi (Size: 689.84 MB) (Files: 1)

 Hillary - The Movie.avi

689.84 MB
 

Announce URL: http://supreme-speeds.com/announce.php?passkey=tssespecialtorrentv1byxamsep2007

Torrent description

Summary:

Quote:
Hillary The Movie is complete! The movie you ve been waiting for is here and exploding onto the scene! With nearly 40 in-depth interviews with experts, opinion makers, and many of the people who personally locked horns with the Clintons, this is the film you need!

The cast to end all casts includes: d**k Morris, Ann Coulter, Newt Gingrich, Jeff Gerth, Buzz Patterson, Michael Barone, Billy Dale, Cyrus Nowrasteh, Tony Blankley, d**k Armey, Bay Buchanan, Joe Connor, Mark Levin, Frank Gaffney, Peter Paul, Gary Aldrich, Dan Burton, John Mica, Michael Medved, Kathleen Willey, Kate O Beirne, Larry Kudlow and more!

If you want to hear about the Clinton scandals of the past and present, you have it here!

Hillary The Movie is the first and last word in what the Clintons want America to forget!



Technical details:
General
Complete name : Hillary Clinton The Movie
Format : AVI
Format/Info : Audio Video Interleave
File size : 690 MiB
Duration : 1h 30mn
Overall bit rate : 1 068 Kbps

Video
Format : MPEG-4 Visual
Format profile : Streaming [email protected]
Format settings, BVOP : Yes
Format settings, QPel : No
Format settings, GMC : No warppoints
Format settings, Matrix : Default (H.263)
Muxing mode : Packed bitstream
Codec ID : XVID
Codec ID/Hint : XviD
Duration : 1h 30mn
Bit rate : 865 Kbps
Width : 600 pixels
Height : 400 pixels
Display aspect ratio : 1.500
Frame rate : 29.970 fps
Resolution : 24 bits
Colorimetry : 4:2:0
Scan type : Progressive
Bits/(Pixel*Frame) : 0.120
Stream size : 558 MiB (81%)
Writing library : XviD 1.1.2 (UTC 2006-11-01)

Audio
Format : MPEG Audio
Format version : Version 1
Format profile : Layer 3
Codec ID : 55
Codec ID/Hint : MP3
Duration : 1h 30mn
Bit rate mode : Constant
Bit rate : 192 Kbps
Channel(s) : 2 channels
Sampling rate : 44.1 KHz
Resolution : 16 bits
Video delay : 26ms
Stream size : 124 MiB (18%)
Alignment : Split accross interleaves
Interleave, duration : 33 ms (1.00 video frame)
Title : Audio Stream
get this torrent and much much more at

www.supreme-speeds.com

come and join now for all the latest torrents including music apps movies sport xxx and a great deal more
great friendly staff and fun filled forums plus fun lotto and casino etc and now our very own radio station
come sign up and check us out

PLEASE NOTE THAT YOU MUST SEED BACK WHAT YOU HAVE TAKEN ON OUR SITE SO OTHERS CAN ALSO GET GREAT SPEEDS TOO -
IF YOU INTEND NOT TO SHARE AND TO HIT AND RUN ON YOUR DOWNLOADS THEN PLS DO NOT JOIN

related torrents

Torrent name

health leech seeds Size

Hillary The Movie

23 1 689.84 MB 0

Porridge The Movie avi com

0 0 699.70 MB 0

Hillary The Movie

0 0 689.86 MB 0
 

comments (0)

Main Menu