Comedy

Peggy Sue Got Married [1986] [teamfx org]

  • Download 5x Faster
  • Download torrent
  • Direct Download
  • Rate this torrent +  |  -
Peggy Sue Got Married [1986] [teamfx org]

Free and Direct Download with Usenet.nl 300GB+ free


Torrent info

Name:Peggy Sue Got Married [1986] [teamfx org]

Total Size: 700.01 MB

Magnet: Magnet Link

Seeds: 0

Leechers: 1

Stream: Watch Online @ Movie4u

Last Updated: 2011-02-09 09:37:19 (Update Now)

Torrent added: 2009-09-09 16:02:28





Torrent Files List


Peggy Sue Got Married.part01.rar (Size: 700.01 MB) (Files: 51)

 Peggy Sue Got Married.part01.rar

14.31 MB

 Peggy Sue Got Married.part01.sfv

5.60 KB

 Peggy Sue Got Married.part02.rar

14.31 MB

 Peggy Sue Got Married.part03.rar

14.31 MB

 Peggy Sue Got Married.part04.rar

14.31 MB

 Peggy Sue Got Married.part05.rar

14.31 MB

 Peggy Sue Got Married.part06.rar

14.31 MB

 Peggy Sue Got Married.part07.rar

14.31 MB

 Peggy Sue Got Married.part08.rar

14.31 MB

 Peggy Sue Got Married.part09.rar

14.31 MB

 Peggy Sue Got Married.part10.rar

14.31 MB

 Peggy Sue Got Married.part11.rar

14.31 MB

 Peggy Sue Got Married.part12.rar

14.31 MB

 Peggy Sue Got Married.part13.rar

14.31 MB

 Peggy Sue Got Married.part14.rar

14.31 MB

 Peggy Sue Got Married.part15.rar

14.31 MB

 Peggy Sue Got Married.part16.rar

14.31 MB

 Peggy Sue Got Married.part17.rar

14.31 MB

 Peggy Sue Got Married.part18.rar

14.31 MB

 Peggy Sue Got Married.part19.rar

14.31 MB

 Peggy Sue Got Married.part20.rar

14.31 MB

 Peggy Sue Got Married.part21.rar

14.31 MB

 Peggy Sue Got Married.part22.rar

14.31 MB

 Peggy Sue Got Married.part23.rar

14.31 MB

 Peggy Sue Got Married.part24.rar

14.31 MB

 Peggy Sue Got Married.part25.rar

14.31 MB

 Peggy Sue Got Married.part26.rar

14.31 MB

 Peggy Sue Got Married.part27.rar

14.31 MB

 Peggy Sue Got Married.part28.rar

14.31 MB

 Peggy Sue Got Married.part29.rar

14.31 MB

 Peggy Sue Got Married.part30.rar

14.31 MB

 Peggy Sue Got Married.part31.rar

14.31 MB

 Peggy Sue Got Married.part32.rar

14.31 MB

 Peggy Sue Got Married.part33.rar

14.31 MB

 Peggy Sue Got Married.part34.rar

14.31 MB

 Peggy Sue Got Married.part35.rar

14.31 MB

 Peggy Sue Got Married.part36.rar

14.31 MB

 Peggy Sue Got Married.part37.rar

14.31 MB

 Peggy Sue Got Married.part38.rar

14.31 MB

 Peggy Sue Got Married.part39.rar

14.31 MB

 Peggy Sue Got Married.part40.rar

14.31 MB

 Peggy Sue Got Married.part41.rar

14.31 MB

 Peggy Sue Got Married.part42.rar

14.31 MB

 Peggy Sue Got Married.part43.rar

14.31 MB

 Peggy Sue Got Married.part44.rar

14.31 MB

 Peggy Sue Got Married.part45.rar

14.31 MB

 Peggy Sue Got Married.part46.rar

14.31 MB

 Peggy Sue Got Married.part47.rar

14.31 MB

 Peggy Sue Got Married.part48.rar

14.31 MB

 Peggy Sue Got Married.part49.rar

13.35 MB

 Peggy Sue.nfo

2.11 KB
 

Announce URL: http://tracker.publicbt.com/announce

Torrent description

Peggy Sue was one of the most popular girls in high school, enjoying life with her friends and her boyfriend Charlie. It was the typical high school dream, until she finds herself married to Charlie and becomming a young mother. However, her life takes a serious turn, leaving her depressed and facing divorce when Charlie runs off with another woman. At her high school reunion, Peggy Sue faints and wakes up back in high school. Despite her confusion about what has happened and how to get back to her own time, Peggy realizes that she has a chance to start her life over, to avoid her depression and her marriage to Charlie. However, just because she knows the future, does that mean she can really avoid it?


Format : AVI
Format/Info : Audio Video Interleave
File size : 700 MiB
Duration : 1h 38mn
Overall bit rate : 990 Kbps
Writing application : VirtualDubMod 1.5.4.1 (build 2178/release)
Writing library : VirtualDubMod build 2178/release

Video
Format : MPEG-4 Visual
Format profile : Streaming [email protected]
Format settings, BVOP : Yes
Format settings, QPel : No
Format settings, GMC : No warppoints
Format settings, Matrix : Custom
Codec ID : XVID
Codec ID/Hint : XviD
Duration : 1h 38mn
Bit rate : 874 Kbps
Width : 608 pixels
Height : 336 pixels
Display aspect ratio : 16/9
Frame rate : 25.000 fps
Resolution : 24 bits
Colorimetry : 4:2:0
Scan type : Progressive
Bits/(Pixel*Frame) : 0.171
Stream size : 618 MiB (88%)
Writing library : XviD 1.2.0.dev47 (UTC 2006-11-01)

Audio
Format : MPEG Audio
Format version : Version 1
Format profile : Layer 3
Codec ID : 55
Codec ID/Hint : MP3
Duration : 1h 38mn
Bit rate mode : Variable
Bit rate : 103 Kbps
Minimum bit rate : 128 Kbps
Channel(s) : 2 channels
Sampling rate : 48.0 KHz
Resolution : 16 bits
Stream size : 73.1 MiB (10%)
Alignment : Aligned on interleaves
Interleave, duration : 24 ms (0.60 video frame)
Interleave, preload duration : 509 ms
Writing library : LAME3.97
Encoding settings : ABR

Link: http://www.imdb.com/title/tt0091738/

related torrents

Torrent name

health leech seeds Size
 

comments (0)

Main Menu