Action

Darkman [1990] [teamfx org]

  • Download 5x Faster
  • Download torrent
  • Direct Download
  • Rate this torrent +  |  -
Darkman [1990] [teamfx org]

Free and Direct Download with Usenet 300GB+ free


Torrent info

Name:Darkman [1990] [teamfx org]

Total Size: 913.28 MB

Magnet: Magnet Link

Seeds: 0

Leechers: 0

Stream: Watch Online @ Movie4u

Last Updated: 2010-09-22 06:33:42 (Update Now)

Torrent added: 2009-09-09 16:02:21




Torrent Files List


Darkman.nfo (Size: 913.28 MB) (Files: 66)

 Darkman.nfo

1.86 KB

 Darkman.part01.rar

14.31 MB

 Darkman.part02.rar

14.31 MB

 Darkman.part03.rar

14.31 MB

 Darkman.part04.rar

14.31 MB

 Darkman.part05.rar

14.31 MB

 Darkman.part06.rar

14.31 MB

 Darkman.part07.rar

14.31 MB

 Darkman.part08.rar

14.31 MB

 Darkman.part09.rar

14.31 MB

 Darkman.part10.rar

14.31 MB

 Darkman.part11.rar

14.31 MB

 Darkman.part12.rar

14.31 MB

 Darkman.part13.rar

14.31 MB

 Darkman.part14.rar

14.31 MB

 Darkman.part15.rar

14.31 MB

 Darkman.part16.rar

14.31 MB

 Darkman.part17.rar

14.31 MB

 Darkman.part18.rar

14.31 MB

 Darkman.part19.rar

14.31 MB

 Darkman.part20.rar

14.31 MB

 Darkman.part21.rar

14.31 MB

 Darkman.part22.rar

14.31 MB

 Darkman.part23.rar

14.31 MB

 Darkman.part24.rar

14.31 MB

 Darkman.part25.rar

14.31 MB

 Darkman.part26.rar

14.31 MB

 Darkman.part27.rar

14.31 MB

 Darkman.part28.rar

14.31 MB

 Darkman.part29.rar

14.31 MB

 Darkman.part30.rar

14.31 MB

 Darkman.part31.rar

14.31 MB

 Darkman.part32.rar

14.31 MB

 Darkman.part33.rar

14.31 MB

 Darkman.part34.rar

14.31 MB

 Darkman.part35.rar

14.31 MB

 Darkman.part36.rar

14.31 MB

 Darkman.part37.rar

14.31 MB

 Darkman.part38.rar

14.31 MB

 Darkman.part39.rar

14.31 MB

 Darkman.part40.rar

14.31 MB

 Darkman.part41.rar

14.31 MB

 Darkman.part42.rar

14.31 MB

 Darkman.part43.rar

14.31 MB

 Darkman.part44.rar

14.31 MB

 Darkman.part45.rar

14.31 MB

 Darkman.part46.rar

14.31 MB

 Darkman.part47.rar

14.31 MB

 Darkman.part48.rar

14.31 MB

 Darkman.part49.rar

14.31 MB

 Darkman.part50.rar

14.31 MB

 Darkman.part51.rar

14.31 MB

 Darkman.part52.rar

14.31 MB

 Darkman.part53.rar

14.31 MB

 Darkman.part54.rar

14.31 MB

 Darkman.part55.rar

14.31 MB

 Darkman.part56.rar

14.31 MB

 Darkman.part57.rar

14.31 MB

 Darkman.part58.rar

14.31 MB

 Darkman.part59.rar

14.31 MB

 Darkman.part60.rar

14.31 MB

 Darkman.part61.rar

14.31 MB

 Darkman.part62.rar

14.31 MB

 Darkman.part63.rar

14.31 MB

 Darkman.part64.rar

12.06 MB

 Darkman.sfv

5.50 KB
 

Announce URL: http://teamfx.org/announce.php

Torrent description

Description Peyton Westlake is a scientist who has discovered a way to produce synthetic skin. This could revolutionise skin grafting, except for one minor glitch; the synthetic skin degrades after 100 minutes of exposure to light. When gangsters attack Peyton, he is horrifically burnt, and assumed dead. In his quest for revenge, Peyton, aka the Darkman, is able to take on the appearance of anyone (using the synthetic skin,) but he's only got 100 minutes per disguise.


Format : AVI
Format/Info : Audio Video Interleave
File size : 913 MiB
Duration : 1h 35mn
Overall bit rate : 1 339 Kbps

Video
Format : MPEG-4 Visual
Format profile : [email protected]
Format settings, BVOP : No
Format settings, QPel : No
Format settings, GMC : No warppoints
Format settings, Matrix : Default
Codec ID : XVID
Codec ID/Hint : XviD
Duration : 1h 35mn
Bit rate : 1 197 Kbps
Width : 640 pixels
Height : 360 pixels
Display aspect ratio : 16/9
Frame rate : 29.970 fps
Original frame rate : 29.969 fps
Resolution : 24 bits
Colorimetry : 4:2:0
Scan type : Progressive
Bits/(Pixel*Frame) : 0.173
Stream size : 817 MiB (89%)
Writing library : Magic0432

Audio
Format : MPEG Audio
Format version : Version 1
Format profile : Layer 3
Codec ID : 55
Codec ID/Hint : MP3
Duration : 1h 35mn
Bit rate mode : Constant
Bit rate : 128 Kbps
Channel(s) : 2 channels
Sampling rate : 44.1 KHz
Resolution : 16 bits
Stream size : 87.3 MiB (10%)
Alignment : Aligned on interleaves
Interleave, duration : 26 ms (0.78 video frame)
Writing library : LAME3.97

Link: http://www.imdb.com/title/tt0099365/

related torrents

Torrent name

health leech seeds Size
 

comments (0)

Main Menu