Drama

[most wanted] Taking Chance 2009

  • Download 5x Faster
  • Download torrent
  • Direct Download
  • Rate this torrent +  |  -
[most wanted] Taking Chance 2009

Free and Direct Download with Usenet 300GB+ free


Torrent info

Name:[most wanted] Taking Chance 2009

Total Size: 700.17 MB

Magnet: Magnet Link

Seeds: 0

Leechers: 0

Stream: Watch Online @ Movie4u

Last Updated: 0000-00-00 00:00:00 (Update Now)

Torrent added: 2009-09-09 14:56:41




Torrent Files List


Movie Info.txt (Size: 700.17 MB) (Files: 6)

 Movie Info.txt

3.28 KB

 Taking Chance[2009]DvDrip-LW-Cover.jpg

47.20 KB

 Taking Chance[2009]DvDrip-LW-DvD Cover.jpg

23.81 KB

 Taking Chance[2009]DvDrip-LW.avi

700.10 MB

 tracked_by_Demonoid.com.txt

0.05 KB

 tracked_by_h33t_com.txt

0.02 KB
 

Announce URL: http://most-wanted.webhop.org/announce.php

Torrent description

F I L E - I N F O
-------------------------------------------------
TITLE......[ Taking Chance
YEAR.......[ 2009
GENRE......[ Drama
RUNTIME....[ 01:20:03
STORE DATE.[ 2009 (USA)
IMDB RATE..[ 7.9/10 (1,190 Votes)
IMDB URL...[ http://www.imdb.com/title/tt1019454/
-------------------------------------------------
Format : AVI
Format/Info : Audio Video Interleave
File size : 700 MiB
Duration : 1h 20mn
Overall bit rate : 1 223 Kbps
Writing application : VirtualDubMod 1.5.10.2 (build 2540/release)
Writing library : VirtualDubMod build 2540/release
SOURCE : DVD
-------------------------------------------------
V I D E O
-------------------------------------------------
Format : MPEG-4 Visual
Format profile : Streaming [email protected]
Format settings, BVOP : Yes
Format settings, QPel : No
Format settings, GMC : No warppoints
Format settings, Matrix : Default (H.263)
Muxing mode : Packed bitstream
Codec ID : DX50
Codec ID/Hint : DivX 5
Duration : 1h 20mn
Bit rate : 1 053 Kbps
Width : 688 pixels
Height : 288 pixels
Display aspect ratio : 2.35
Frame rate : 25.000 fps
Resolution : 24 bits
Colorimetry : 4:2:0
Scan type : Progressive
Bits/(Pixel*Frame) : 0.213
Stream size : 603 MiB (86)
Writing library : XviD 1.2.0.dev47 (UTC 2006-11-01)
-------------------------------------------------
A U D I O
-------------------------------------------------
Format : MPEG Audio
Format version : Version 1
Format profile : Layer 3
Codec ID : 55
Codec ID/Hint : MP3
Duration : 1h 20mn
Bit rate mode : Constant
Bit rate : 160 Kbps
Channel(s) : 2 channels
Sampling rate : 48.0 KHz
Resolution : 16 bits
Stream size : 91.6 MiB (13)
Alignment : Aligned on interleaves
Interleave, duration : 40 ms (1.00 video frame)
Interleave, preload duration : 504 ms
-------------------------------------------------
P L O T
-------------------------------------------------
Based on an article by Marine Lt. Col. Michael
Strobl, this HBO original film tells the story
of Strobl's emotional experience traveling across
America as a volunteer escort officer for the body
of fallen 19-year-old soldier Chance Phelps. The
2004 journey was made especially significant by
the fact that both Strobl and Phelps share the
same hometown of Dubois, Wyo., with a population
of less than 1,000.

Starring: Kevin Bacon, Tom Aldredge

Director: Ross Katz

related torrents

Torrent name

health leech seeds Size
 

comments (0)

Main Menu