Other

The Sweeney Series 4 mazysmadhouse net

  • Download 5x Faster
  • Download torrent
  • Direct Download
  • Rate this torrent +  |  -
The Sweeney Series 4 mazysmadhouse net

Anonymous and Free Direct Download 300GB+


Torrent info

Name:The Sweeney Series 4 mazysmadhouse net

Total Size: 4.31 GB

Magnet: Magnet Link

Seeds: 0

Leechers: 0

Stream: Watch Online @ Movie4u

Last Updated: 2012-09-10 05:56:28 (Update Now)

Torrent added: 2009-09-09 14:33:06



VPN For Torrents

Torrent Files List


Bait S4 E07.avi (Size: 4.31 GB) (Files: 14)

 Bait S4 E07.avi

315.77 MB

 Drag Act S4 E03.avi

319.48 MB

 Feet of Clay S4 E09.avi

312.37 MB

 Hard Men S4 E02.avi

317.26 MB

 Hearts and Minds S4 E11.avi

331.67 MB

 Jack Or Knave S3 E14.avi

312.44 MB

 Lady Luck S4 E12.avi

311.45 MB

 Messenger of the Gods S4 E01.avi

319.62 MB

 Money,Money,Money S4 E06.avi

316.38 MB

 Nightmare S4 E05.avi

306.52 MB

 One of Your Own S4 E10.avi

315.43 MB

 The Bigger They Are S4 E08.avi

317.55 MB

 Trust Red S4 E04.avi

309.46 MB

 Victims S4 E13.avi

309.53 MB
 

Announce URL:

Torrent description

TV : Crime : DVD quality : English
Series 4 contains the following episodes. IMDB

Messenger of the Gods
Hard Men
Drag Act
Trust Red
Nightmare
Money, Money, Money
Bait
The Bigger They Ate
Feet of Clay
One of Your Own
Hearts and Minds
Lady Luck
Victims
Jack or Knave

All episodes should be roughly the same as this.
Format : AVI
Format/Info : Audio Video Interleave
File size : 320 MiB
Duration : 51mn 21s
Overal bit rate : 870 Kbps

Video
Format : MPEG-4 Visual
Format profile : [email protected]
Format settings, BVOP : No
Format settings, QPel : No
Format settings, GMC : No warppoints
Format settings, Matrix : Default
Codec ID : XVID
Codec ID/Hint : XviD
Duration : 51mn 21s
Bit rate : 730 Kbps
Width : 624 pixels
Height : 352 pixels
Display aspect ratio : 16/9
Frame rate : 25.000 fps
Resolution : 8 bits
Colorimetry : 4:2:0
Scan type : Progressive
Bits/(Pixel*Frame) : 0.133
Stream size : 268 MiB (84%)
Writing library : Magic0432

Audio
Format : MPEG Audio
Format version : Version 1
Format profile : Layer 3
Codec ID : 55
Codec ID/Hint : MP3
Duration : 51mn 21s
Bit rate mode : Constant
Bit rate : 128 Kbps
Channel(s) : 2 channels
Sampling rate : 44.1 KHz
Resolution : 16 bits
Stream size : 47.0 MiB (15%)
Writing library : LAME3.97

related torrents

Torrent name

health leech seeds Size

The Sweeney Series 2

0 0 2.00 GB 0
 


comments (0)

Main Menu