Horror

My Bloody Valentine dvd rip custom dvd kin2 com

  • Download 5x Faster
  • Download torrent
  • Direct Download
  • Rate this torrent +  |  -
My Bloody Valentine dvd rip custom dvd kin2 com

Anonymous and Free Direct Download 300GB+


Torrent info

Name:My Bloody Valentine dvd rip custom dvd kin2 com

Total Size: 1.42 GB

Magnet: Magnet Link

Seeds: 0

Leechers: 0

Stream: Watch Online @ Movie4u

Last Updated: 2010-08-09 13:19:23 (Update Now)

Torrent added: 2009-09-09 14:17:33



VPN For Torrents

Torrent Files List


VIDEO_TS (Size: 1.42 GB) (Files: 8)

 VIDEO_TS

  VIDEO_TS.BUP

12.00 KB

  VIDEO_TS.IFO

12.00 KB

  VIDEO_TS.VOB

56.00 KB

  VTS_01_0.BUP

80.00 KB

  VTS_01_0.IFO

80.00 KB

  VTS_01_0.VOB

57.88 MB

  VTS_01_1.VOB

1.00 GB

  VTS_01_2.VOB

376.62 MB
 

Announce URL: http://supreme-speeds.com/announce.php?passkey=tssespecialtorrentv1byxamsep2007

Torrent description

My.Bloody.Valentine.DVDRip. custom dvd
these files r ready to burn straight to disc threw nero buring rom
source i used was My.Bloody.Valentine.DVDRip.XviD-JUMANJi

IMDB - http://www.imdb.com/title/tt1179891/ (6.3/10- 7147 Votes)

Release Date: 16 January 2009 (USA)

Genre: Crime | Horror | Mystery

Plot: Tom returns to his hometown on the tenth
anniversary of the Valentine's night massacre that
claimed the lives of 22 people. Instead of a homecoming,
however, Tom finds himself suspected of committing
the murders, and it seems like his old flame is the only
one will believes he's innocent.

Runtime: 101 min
Language: English


Video
ID : 224 (0xE0)
Format : MPEG Video
Format version : Version 2
Format profile : [email protected]
Format settings, Matrix : Default
Duration : 30s 29ms
Bit rate mode : Variable
Bit rate : 15.3 Mbps
Nominal bit rate : 9 100 Kbps
Width : 720 pixels
Height : 480 pixels
Display aspect ratio : 4/3
Frame rate : 29.970 fps
Standard : NTSC
Colorimetry : 4:2:0
Scan type : Progressive
Bits/(Pixel*Frame) : 1.480
Stream size : 54.9 MiB (95%)

Audio
ID : 128 (0x80)
Format : AC-3
Format/Info : Audio Coding 3
Duration : 29s 855ms
Bit rate mode : Constant
Bit rate : 192 Kbps
Channel(s) : 2 channels
Channel positions : L R
Sampling rate : 48.0 KHz
Stream size : 700 KiB (1%)

related torrents

Torrent name

health leech seeds Size
 


comments (0)

Main Menu