Action

Hatton vs Pacqiou TheCartell com

  • Download 5x Faster
  • Download torrent
  • Direct Download
  • Rate this torrent +  |  -
Hatton vs Pacqiou TheCartell com

Free and Direct Download with Usenet.nl 300GB+ free


Torrent info

Name:Hatton vs Pacqiou TheCartell com

Total Size: 88.44 MB

Magnet: Magnet Link

Seeds: 0

Leechers: 0

Stream: Watch Online @ Movie4u

Last Updated: 2010-10-06 06:08:15 (Update Now)

Torrent added: 2009-09-09 14:07:07





Torrent Files List


disable dht.txt (Size: 88.44 MB) (Files: 8)

 disable dht.txt

0.50 KB

 Hatton.vs.Pacqiou.TheCartell.www.supreme-speeds.com.part1.rar

14.31 MB

 Hatton.vs.Pacqiou.TheCartell.www.supreme-speeds.com.part2.rar

14.31 MB

 Hatton.vs.Pacqiou.TheCartell.www.supreme-speeds.com.part3.rar

14.31 MB

 Hatton.vs.Pacqiou.TheCartell.www.supreme-speeds.com.part4.rar

14.31 MB

 Hatton.vs.Pacqiou.TheCartell.www.supreme-speeds.com.part5.rar

14.31 MB

 Hatton.vs.Pacqiou.TheCartell.www.supreme-speeds.com.part6.rar

14.31 MB

 Hatton.vs.Pacqiou.TheCartell.www.supreme-speeds.com.part7.rar

2.61 MB
 

Announce URL: http://supreme-speeds.com/announce.php?passkey=tssespecialtorrentv1byxamsep2007

Torrent description

ormat : AVI
Format/Info : Audio Video Interleave
Format profile : OpenDML
File size : 88.4 MiB
Duration : 11mn 24s
Overall bit rate : 1 083 Kbps
Writing application : AVI-Mux GUI 1.17.7, Aug 8 2006 20:59:17

Video
Format : MPEG-4 Visual
Format profile : Streaming [email protected]
Format settings, BVOP : Yes
Format settings, QPel : No
Format settings, GMC : No warppoints
Format settings, Matrix : Default
Codec ID : XVID
Codec ID/Hint : XviD
Duration : 11mn 24s
Bit rate : 628 Kbps
Width : 512 pixels
Height : 368 pixels
Display aspect ratio : 1.391
Frame rate : 29.970 fps
Resolution : 24 bits
Colorimetry : 4:2:0
Scan type : Progressive
Bits/(Pixel*Frame) : 0.111
Stream size : 51.3 MiB (58%)
Writing library : XviD 1.2.1 (UTC 2008-12-04)

Audio
Format : AC-3
Format/Info : Audio Coding 3
Codec ID : 2000
Duration : 11mn 24s
Bit rate mode : Constant
Bit rate : 448 Kbps
Channel(s) : 2 channels
Channel positions : L R
Sampling rate : 48.0 KHz
Stream size : 36.6 MiB (41%)
Alignment : Aligned on interleaves
Interleave, duration : 64 ms (1.92 video frames)
Interleave, preload duration : 192 ms

related torrents

Torrent name

health leech seeds Size
 

comments (0)

Main Menu