Action

[mazysmadhouse net] Push 2009 HDTVRip XviD LTRG

  • Download 5x Faster
  • Download torrent
  • Direct Download
  • Rate this torrent +  |  -
[mazysmadhouse net] Push 2009 HDTVRip XviD LTRG

Anonymous and free Direct Download 300GB+


Torrent info

Name:[mazysmadhouse net] Push 2009 HDTVRip XviD LTRG

Total Size: 711.08 MB

Magnet: Magnet Link

Seeds: 0

Leechers: 0

Stream: Watch Online @ Movie4u

Last Updated: 2011-01-08 22:29:53 (Update Now)

Torrent added: 2009-09-09 14:04:45



VPN For Torrents

Torrent Files List


Push.2009.HDTVRip.XviD-LTRG.nfo (Size: 711.08 MB) (Files: 52)

 Push.2009.HDTVRip.XviD-LTRG.nfo

3.47 KB

 Push.2009.HDTVRip.XviD-LTRG.part01.rar

14.31 MB

 Push.2009.HDTVRip.XviD-LTRG.part02.rar

14.31 MB

 Push.2009.HDTVRip.XviD-LTRG.part03.rar

14.31 MB

 Push.2009.HDTVRip.XviD-LTRG.part04.rar

14.31 MB

 Push.2009.HDTVRip.XviD-LTRG.part05.rar

14.31 MB

 Push.2009.HDTVRip.XviD-LTRG.part06.rar

14.31 MB

 Push.2009.HDTVRip.XviD-LTRG.part07.rar

14.31 MB

 Push.2009.HDTVRip.XviD-LTRG.part08.rar

14.31 MB

 Push.2009.HDTVRip.XviD-LTRG.part09.rar

14.31 MB

 Push.2009.HDTVRip.XviD-LTRG.part10.rar

14.31 MB

 Push.2009.HDTVRip.XviD-LTRG.part11.rar

14.31 MB

 Push.2009.HDTVRip.XviD-LTRG.part12.rar

14.31 MB

 Push.2009.HDTVRip.XviD-LTRG.part13.rar

14.31 MB

 Push.2009.HDTVRip.XviD-LTRG.part14.rar

14.31 MB

 Push.2009.HDTVRip.XviD-LTRG.part15.rar

14.31 MB

 Push.2009.HDTVRip.XviD-LTRG.part16.rar

14.31 MB

 Push.2009.HDTVRip.XviD-LTRG.part17.rar

14.31 MB

 Push.2009.HDTVRip.XviD-LTRG.part18.rar

14.31 MB

 Push.2009.HDTVRip.XviD-LTRG.part19.rar

14.31 MB

 Push.2009.HDTVRip.XviD-LTRG.part20.rar

14.31 MB

 Push.2009.HDTVRip.XviD-LTRG.part21.rar

14.31 MB

 Push.2009.HDTVRip.XviD-LTRG.part22.rar

14.31 MB

 Push.2009.HDTVRip.XviD-LTRG.part23.rar

14.31 MB

 Push.2009.HDTVRip.XviD-LTRG.part24.rar

14.31 MB

 Push.2009.HDTVRip.XviD-LTRG.part25.rar

14.31 MB

 Push.2009.HDTVRip.XviD-LTRG.part26.rar

14.31 MB

 Push.2009.HDTVRip.XviD-LTRG.part27.rar

14.31 MB

 Push.2009.HDTVRip.XviD-LTRG.part28.rar

14.31 MB

 Push.2009.HDTVRip.XviD-LTRG.part29.rar

14.31 MB

 Push.2009.HDTVRip.XviD-LTRG.part30.rar

14.31 MB

 Push.2009.HDTVRip.XviD-LTRG.part31.rar

14.31 MB

 Push.2009.HDTVRip.XviD-LTRG.part32.rar

14.31 MB

 Push.2009.HDTVRip.XviD-LTRG.part33.rar

14.31 MB

 Push.2009.HDTVRip.XviD-LTRG.part34.rar

14.31 MB

 Push.2009.HDTVRip.XviD-LTRG.part35.rar

14.31 MB

 Push.2009.HDTVRip.XviD-LTRG.part36.rar

14.31 MB

 Push.2009.HDTVRip.XviD-LTRG.part37.rar

14.31 MB

 Push.2009.HDTVRip.XviD-LTRG.part38.rar

14.31 MB

 Push.2009.HDTVRip.XviD-LTRG.part39.rar

14.31 MB

 Push.2009.HDTVRip.XviD-LTRG.part40.rar

14.31 MB

 Push.2009.HDTVRip.XviD-LTRG.part41.rar

14.31 MB

 Push.2009.HDTVRip.XviD-LTRG.part42.rar

14.31 MB

 Push.2009.HDTVRip.XviD-LTRG.part43.rar

14.31 MB

 Push.2009.HDTVRip.XviD-LTRG.part44.rar

14.31 MB

 Push.2009.HDTVRip.XviD-LTRG.part45.rar

14.31 MB

 Push.2009.HDTVRip.XviD-LTRG.part46.rar

14.31 MB

 Push.2009.HDTVRip.XviD-LTRG.part47.rar

14.31 MB

 Push.2009.HDTVRip.XviD-LTRG.part48.rar

14.31 MB

 Push.2009.HDTVRip.XviD-LTRG.part49.rar

13.24 MB

 Push.2009.HDTVRip.XviD-LTRG.SAMPLE.avi

10.98 MB

 Push.2009.HDTVRip.XviD-LTRG.sfv

6.70 KB
 

Announce URL: http://mazysmadhouse.net/announce.php?passkey=tssespecialtorrentv1byxamsep2007

Torrent description

Details for torrent " Push 2009 HDRip XviD-UNK "
General
Complete name : Push.2009.HDRip.XviD-pknw1.avi
Format : AVI
Format/Info : Audio Video Interleave
File size : 709 MiB
Duration : 1h 51mn
Overall bit rate : 891 Kbps
Writing library : VirtualDub build 30009/release

Video
Format : MPEG-4 Visual
Format profile : Streaming [email protected]
Format settings, BVOP : Yes
Format settings, QPel : No
Format settings, GMC : No warppoints
Format settings, Matrix : Default
Muxing mode : Packed bitstream
Codec ID : XVID
Codec ID/Hint : XviD
Duration : 1h 51mn
Bit rate : 754 Kbps
Width : 640 pixels
Height : 364 pixels
Display aspect ratio : 16/9
Frame rate : 23.976 fps
Resolution : 24 bits
Colorimetry : 4:2:0
Scan type : Progressive
Bits/(Pixel*Frame) : 0.135
Stream size : 599 MiB (85%)
Writing library : XviD 50

Audio
Format : MPEG Audio
Format version : Version 1
Format profile : Layer 3
Codec ID : 55
Codec ID/Hint : MP3
Duration : 1h 51mn
Bit rate mode : Constant
Bit rate : 128 Kbps
Channel(s) : 2 channels
Sampling rate : 48.0 KHz
Resolution : 16 bits
Stream size : 102 MiB (14%)
Alignment : Split accross interleaves
Interleave, duration : 42 ms (1.00 video frame)
Interleave, preload duration : 500 ms


re-encode of Push.2009.HDRip.SUBBED.XviD-ArDVD which had hard coded Koren subs

removed the subs with VirtualDub logoaway (which has blurred some of the bottom of the screen)
removed top and bottom black bars
encoded to 1CD

related torrents

Torrent name

health leech seeds Size
 


comments (0)

Main Menu