Comedy

Sinderella DVDRip XviD LL Xclusives mazysmadhouse net

  • Download 5x Faster
  • Download torrent
  • Direct Download
  • Rate this torrent +  |  -
Sinderella DVDRip XviD LL Xclusives mazysmadhouse net

Free and Direct Download with Usenet 300GB+ free


Torrent info

Name:Sinderella DVDRip XviD LL Xclusives mazysmadhouse net

Total Size: 692.72 MB

Magnet: Magnet Link

Seeds: 0

Leechers: 0

Stream: Watch Online @ Movie4u

Last Updated: 2010-09-24 01:16:48 (Update Now)

Torrent added: 2009-09-09 14:01:42




Torrent Files List


Sinderella.DVDRip.XviD-LL.Xclusives.nfo (Size: 692.72 MB) (Files: 50)

 Sinderella.DVDRip.XviD-LL.Xclusives.nfo

10.56 KB

 Sinderella.DVDRip.XviD-LL.Xclusives.part01.rar

14.31 MB

 Sinderella.DVDRip.XviD-LL.Xclusives.part02.rar

14.31 MB

 Sinderella.DVDRip.XviD-LL.Xclusives.part03.rar

14.31 MB

 Sinderella.DVDRip.XviD-LL.Xclusives.part04.rar

14.31 MB

 Sinderella.DVDRip.XviD-LL.Xclusives.part05.rar

14.31 MB

 Sinderella.DVDRip.XviD-LL.Xclusives.part06.rar

14.31 MB

 Sinderella.DVDRip.XviD-LL.Xclusives.part07.rar

14.31 MB

 Sinderella.DVDRip.XviD-LL.Xclusives.part08.rar

14.31 MB

 Sinderella.DVDRip.XviD-LL.Xclusives.part09.rar

14.31 MB

 Sinderella.DVDRip.XviD-LL.Xclusives.part10.rar

14.31 MB

 Sinderella.DVDRip.XviD-LL.Xclusives.part11.rar

14.31 MB

 Sinderella.DVDRip.XviD-LL.Xclusives.part12.rar

14.31 MB

 Sinderella.DVDRip.XviD-LL.Xclusives.part13.rar

14.31 MB

 Sinderella.DVDRip.XviD-LL.Xclusives.part14.rar

14.31 MB

 Sinderella.DVDRip.XviD-LL.Xclusives.part15.rar

14.31 MB

 Sinderella.DVDRip.XviD-LL.Xclusives.part16.rar

14.31 MB

 Sinderella.DVDRip.XviD-LL.Xclusives.part17.rar

14.31 MB

 Sinderella.DVDRip.XviD-LL.Xclusives.part18.rar

14.31 MB

 Sinderella.DVDRip.XviD-LL.Xclusives.part19.rar

14.31 MB

 Sinderella.DVDRip.XviD-LL.Xclusives.part20.rar

14.31 MB

 Sinderella.DVDRip.XviD-LL.Xclusives.part21.rar

14.31 MB

 Sinderella.DVDRip.XviD-LL.Xclusives.part22.rar

14.31 MB

 Sinderella.DVDRip.XviD-LL.Xclusives.part23.rar

14.31 MB

 Sinderella.DVDRip.XviD-LL.Xclusives.part24.rar

14.31 MB

 Sinderella.DVDRip.XviD-LL.Xclusives.part25.rar

14.31 MB

 Sinderella.DVDRip.XviD-LL.Xclusives.part26.rar

14.31 MB

 Sinderella.DVDRip.XviD-LL.Xclusives.part27.rar

14.31 MB

 Sinderella.DVDRip.XviD-LL.Xclusives.part28.rar

14.31 MB

 Sinderella.DVDRip.XviD-LL.Xclusives.part29.rar

14.31 MB

 Sinderella.DVDRip.XviD-LL.Xclusives.part30.rar

14.31 MB

 Sinderella.DVDRip.XviD-LL.Xclusives.part31.rar

14.31 MB

 Sinderella.DVDRip.XviD-LL.Xclusives.part32.rar

14.31 MB

 Sinderella.DVDRip.XviD-LL.Xclusives.part33.rar

14.31 MB

 Sinderella.DVDRip.XviD-LL.Xclusives.part34.rar

14.31 MB

 Sinderella.DVDRip.XviD-LL.Xclusives.part35.rar

14.31 MB

 Sinderella.DVDRip.XviD-LL.Xclusives.part36.rar

14.31 MB

 Sinderella.DVDRip.XviD-LL.Xclusives.part37.rar

14.31 MB

 Sinderella.DVDRip.XviD-LL.Xclusives.part38.rar

14.31 MB

 Sinderella.DVDRip.XviD-LL.Xclusives.part39.rar

14.31 MB

 Sinderella.DVDRip.XviD-LL.Xclusives.part40.rar

14.31 MB

 Sinderella.DVDRip.XviD-LL.Xclusives.part41.rar

14.31 MB

 Sinderella.DVDRip.XviD-LL.Xclusives.part42.rar

14.31 MB

 Sinderella.DVDRip.XviD-LL.Xclusives.part43.rar

14.31 MB

 Sinderella.DVDRip.XviD-LL.Xclusives.part44.rar

14.31 MB

 Sinderella.DVDRip.XviD-LL.Xclusives.part45.rar

14.31 MB

 Sinderella.DVDRip.XviD-LL.Xclusives.part46.rar

14.31 MB

 Sinderella.DVDRip.XviD-LL.Xclusives.part47.rar

14.31 MB

 Sinderella.DVDRip.XviD-LL.Xclusives.part48.rar

14.31 MB

 Sinderella.DVDRip.XviD-LL.Xclusives.part49.rar

6.06 MB
 

Announce URL: http://mazysmadhouse.net/announce.php?passkey=tssespecialtorrentv1byxamsep2007

Torrent description

Format : AVI

Source : DVD

File size : 700 MiB

PlayTime : 1h 36mn

Total Bit rate : 1 015 Kbps

Subtitles : English (.srt)

iMDB : NA

iMDB Rating : NA ( votes)



Description: Sinderella: This is utter brilliance. Ten years on its still as fresh, funny and excellent

as it was when first done. Jim is Buttons in the classic tale, Jess Conrad is

the prince (with tight clothing - watch it you'll see what i mean).

the late charlie drake is utter brilliant as the baron. You'll have to watch it

purely to see where he can remember the script. Script? there isn't one i don't think.

a lot is ad-libbed which i think makes the show better and this is definitely one if

you liked Jim Davidson in stand up. Please just don't watch it if you're offended easily

as this is smutty, swearing and plain adult humour.







Video:



Format : MPEG-4 Visual

Format profile : Streaming [email protected]

Format settings, BVOP : Yes

Format settings, QPel : No

Format settings, GMC : No warppoints

Format settings, Matrix : Custom

Codec ID : XVID

Codec ID/Hint : XviD

Duration : 1h 36mn

Bit rate : 888 Kbps

Width : 544 pixels

Height : 416 pixels

Display aspect ratio : 4/3

Frame rate : 25.000 fps

Resolution : 24 bits

Colorimetry : 4:2:0

Scan type : Progressive

Bits/(Pixel*Frame) : 0.157

Stream size : 612 MiB (88%)

Writing library : XviD 1.2.1 (UTC 2008-12-04)



Audio:



Format : MPEG Audio

Format version : Version 1

Format profile : Layer 3

Codec ID : 55

Codec ID/Hint : MP3

Duration : 1h 36mn

Bit rate mode : Variable

Bit rate : 114 Kbps

Minimum bit rate : 128 Kbps

Channel(s) : 2 channels

Sampling rate : 48.0 KHz

Resolution : 16 bits

Stream size : 78.3 MiB (11%)

Alignment : Aligned on interleaves

Interleave, duration : 24 ms (0.60 video frame)

Interleave, preload duration : 540 ms

Writing library : LAME3.97

Encoding settings : ABR

Language : English

related torrents

Torrent name

health leech seeds Size
 

comments (0)

Main Menu