Action

[mazysmadhouse net] The Sweeney

  • Download 5x Faster
  • Download torrent
  • Direct Download
  • Rate this torrent +  |  -
[mazysmadhouse net] The Sweeney

Free and Direct Download with Usenet.nl 300GB+ free


Torrent info

Name:[mazysmadhouse net] The Sweeney

Total Size: 720.46 MB

Magnet: Magnet Link

Seeds: 0

Leechers: 0

Stream: Watch Online @ Movie4u

Last Updated: 2010-12-21 22:19:20 (Update Now)

Torrent added: 2009-09-09 13:58:47





Torrent Files List


The Sweeney.avi (Size: 720.46 MB) (Files: 1)

 The Sweeney.avi

720.46 MB
 

Announce URL: http://mazysmadhouse.net/announce.php?passkey=tssespecialtorrentv1byxamsep2007

Torrent description

Details for torrent " Sweeney(The Movie) "
Movies : Crime : DVD Rip : English
Cinematic spin-off from the popular TV series. Hard-bitten Flying Squad officer Jack Regan gets embroiled in a deadly political plot when an old friend asks him to investigate the death of his girlfriend. Framed on a drunk-drive charge and suspended from the force, with his partner and best mate George Carter unable to help, Jack must rely on his wits to evade deadly government hitmen and expose the real villain of the piece.
IMDB

Format : AVI
Format/Info : Audio Video Interleave
File size : 720 MiB
Duration : 1h 32mn
Overal bit rate : 1085 Kbps

Video
Format : MPEG-4 Visual
Format profile : [email protected]
Format settings, BVOP : No
Format settings, QPel : No
Format settings, GMC : No warppoints
Format settings, Matrix : Default
Codec ID : XVID
Codec ID/Hint : XviD
Duration : 1h 32mn
Bit rate : 944 Kbps
Width : 640 pixels
Height : 360 pixels
Display aspect ratio : 16/9
Frame rate : 25.000 fps
Resolution : 8 bits
Colorimetry : 4:2:0
Scan type : Progressive
Bits/(Pixel*Frame) : 0.164
Stream size : 627 MiB (87%)
Writing library : Magic0432

Audio
Format : MPEG Audio
Format version : Version 1
Format profile : Layer 3
Codec ID : 55
Codec ID/Hint : MP3
Duration : 1h 32mn
Bit rate mode : Constant
Bit rate : 128 Kbps
Channel(s) : 2 channels
Sampling rate : 44.1 KHz
Resolution : 16 bits
Stream size : 85.0 MiB (12%)

related torrents

Torrent name

health leech seeds Size
 

comments (0)

Main Menu