Other

Sweeney 2 W33D mazysmadhouse net

  • Download 5x Faster
  • Download torrent
  • Direct Download
  • Rate this torrent +  |  -
Sweeney 2 W33D mazysmadhouse net

Anonymous and Free Direct Download 300GB+


Torrent info

Name:Sweeney 2 W33D mazysmadhouse net

Total Size: 721.89 MB

Magnet: Magnet Link

Seeds: 0

Leechers: 0

Stream: Watch Online @ Movie4u

Last Updated: 2010-09-04 05:25:22 (Update Now)

Torrent added: 2009-09-09 13:58:25



VPN For Torrents

Torrent Files List


The Sweeney 2.avi (Size: 721.89 MB) (Files: 1)

 The Sweeney 2.avi

721.89 MB
 

Announce URL: http://mazysmadhouse.net/announce.php?passkey=tssespecialtorrentv1byxamsep2007

Torrent description

Movies : Crime : DVD Rip : English
Second cinematic spin-off from the popular 70's police series. Regan & Carter head a Flying Squad investigation into a series of bank raids by a team of well-armed villains who are flying in from the continent.
IMDB

Format : AVI
Format/Info : Audio Video Interleave
File size : 722 MiB
Duration : 1h 43mn
Overal bit rate : 974 Kbps

Video
Format : MPEG-4 Visual
Format profile : [email protected]
Format settings, BVOP : No
Format settings, QPel : No
Format settings, GMC : No warppoints
Format settings, Matrix : Default
Codec ID : XVID
Codec ID/Hint : XviD
Duration : 1h 43mn
Bit rate : 834 Kbps
Width : 640 pixels
Height : 360 pixels
Display aspect ratio : 16/9
Frame rate : 25.000 fps
Resolution : 8 bits
Colorimetry : 4:2:0
Scan type : Progressive
Bits/(Pixel*Frame) : 0.145
Stream size : 618 MiB (86%)
Writing library : Magic0432

Audio
Format : MPEG Audio
Format version : Version 1
Format profile : Layer 3
Codec ID : 55
Codec ID/Hint : MP3
Duration : 1h 43mn
Bit rate mode : Constant
Bit rate : 128 Kbps
Channel(s) : 2 channels
Sampling rate : 44.1 KHz
Resolution : 16 bits
Stream size : 94.9 MiB (13%)
Writing library : LAME3.97

related torrents

Torrent name

health leech seeds Size
 


comments (0)

Main Menu