Horror

96 TLHOTL 2009 com

  • Download 5x Faster
  • Download torrent
  • Direct Download
  • Rate this torrent +  |  -
96 TLHOTL 2009 com

Anonymous and Direct Download 300GB+ free


Torrent info

Name:96 TLHOTL 2009 com

Total Size: 3.94 GB

Magnet: Magnet Link

Seeds: 0

Leechers: 0

Stream: Watch Online @ Movie4u

Last Updated: 2010-10-01 13:25:19 (Update Now)

Torrent added: 2009-09-09 12:59:33




Torrent Files List


VIDEO_TS (Size: 3.94 GB) (Files: 10)

 VIDEO_TS

  VIDEO_TS.BUP

12.00 KB

  VIDEO_TS.IFO

12.00 KB

  VIDEO_TS.VOB

9.58 MB

  VTS_01_0.BUP

82.00 KB

  VTS_01_0.IFO

82.00 KB

  VTS_01_0.VOB

41.07 MB

  VTS_01_1.VOB

1.00 GB

  VTS_01_2.VOB

1.00 GB

  VTS_01_3.VOB

1.00 GB

  VTS_01_4.VOB

906.98 MB
 

Announce URL: http://supreme-speeds.com/announce.php?passkey=tssespecialtorrentv1byxamsep2007

Torrent description

96   TLHOTL 2009  com preview 0
96   TLHOTL 2009  com preview 1


The Last House On The Left 2009 PPVRIP CUSTOM DVD

Release Date......:27/05/09
Theatre Date......:13/03/09
DVD Runtime.......:01:52:15
Language..........:ENGLISH
IMDb URL..........:http://www.imdb.com/title/tt0844708/
IMDB Rating.......:7.0/10


Video
ID : 224 (0xE0)
Format : MPEG Video
Format version : Version 2
Format profile : [email protected]
Format settings, Matrix : Default
Duration : 27mn 46s
Bit rate mode : Variable
Bit rate : 4 759 Kbps
Nominal bit rate : 9 608 Kbps
Width : 720 pixels
Height : 480 pixels
Display aspect ratio : 16/9
Frame rate : 29.970 fps
Standard : NTSC
Colorimetry : 4:2:0
Scan type : Progressive
Bits/(Pixel*Frame) : 0.459
Stream size : 945 MiB (92%)

Audio
ID : 128 (0x80)
Format : AC-3
Format/Info : Audio Coding 3
Duration : 27mn 45s
Bit rate mode : Constant
Bit rate : 192 Kbps
Channel(s) : 2 channels
Channel positions : L R
Sampling rate : 48.0 KHz
Stream size : 38.1 MiB (4%)

SEEDING RULES
Normal Users - Seed to a RATIO OF 1:1 OR for 48 HOURS
V.I.P. Users - dont Seed back

ANYONE NOT SEEDING to these RULES WILL BE WARNED, may have DOWNLOAD RESTRICTIONS imposed, and even be DISABLED from DOWNLOADING

Don't say we haven't warned you!!!

96   TLHOTL 2009  com preview 2

Join us at supreme-speeds.com and enjoy the latest downloads like this one!

All torrents are seeded by servers which means you will get your max download speed.

We have all the latest TV Episodes, Movies, Games, Music, MMA, WWE and alot more.
We will have all new stuff on the site minutes after its been released onto the net.

If my uploads where where not real i would of been banned by now.

Registrations are open and when you signup you receive
2gb upload credit and 100 bonus points

Remember for this download to start you must register at http://supreme-speeds.com which
takes 1 minute and then you download the torrent from there at very fast speeds.

thanks from our friendly staff at team supreme

related torrents

Torrent name

health leech seeds Size
 


comments (0)

Main Menu