Other

Illegal Tender DVDRiP XViD SB0 mazysmadhouse net

  • Download 5x Faster
  • Download torrent
  • Direct Download
  • Rate this torrent +  |  -
Illegal Tender DVDRiP XViD SB0 mazysmadhouse net

Anonymous and Free Direct Download 300GB+


Torrent info

Name:Illegal Tender DVDRiP XViD SB0 mazysmadhouse net

Total Size: 699.73 MB

Magnet: Magnet Link

Seeds: 0

Leechers: 0

Stream: Watch Online @ Movie4u

Last Updated: 2009-11-23 17:36:46 (Update Now)

Torrent added: 2009-09-09 12:44:51



VPN For Torrents

Torrent Files List


Illegal Tender DVDRiP XViD SB0.avi (Size: 699.73 MB) (Files: 2)

 Illegal Tender DVDRiP XViD SB0.avi

699.73 MB

 Illegal Tender DVDRiP XViD SB0.nfo

4.94 KB
 

Announce URL: http://mazysmadhouse.net/announce.php?passkey=tssespecialtorrentv1byxamsep2007

Torrent description

*******************************************************************************
Illegal Tender DVDRiP XViD SB0
*******************************************************************************

-------------------------------------------------------------------------------
General Information
-------------------------------------------------------------------------------
Type.................: Movie



Movie Information....: http://www.imdb.com/title/tt0775488/

-------------------------------------------------------------------------------
Release Notes
-------------------------------------------------------------------------------
General
Complete name :Illegal Tender DVDRiP XViD SB0.avi
Format : AVI
Format/Info : Audio Video Interleave
File size : 700 MiB
Duration : 1h 42mn
Overall bit rate : 951 Kbps
Writing application : VirtualDubMod 1.5.4.1 (build 2178/release)
Writing library : VirtualDubMod build 2178/release

Video
Format : MPEG-4 Visual
Format profile : Streaming [email protected]
Format settings, BVOP : Yes
Format settings, QPel : No
Format settings, GMC : No warppoints
Format settings, Matrix : Custom
Codec ID : XVID
Codec ID/Hint : XviD
Duration : 1h 42mn
Bit rate : 836 Kbps
Width : 608 pixels
Height : 256 pixels
Display aspect ratio : 2.35
Frame rate : 25.000 fps
Resolution : 24 bits
Colorimetry : 4:2:0
Scan type : Progressive
Bits/(Pixel*Frame) : 0.215
Stream size : 615 MiB (88%)
Writing library : XviD 1.1.2 (UTC 2006-11-01)

Audio
Format : MPEG Audio
Format version : Version 1
Format profile : Layer 3
Codec ID : 55
Codec ID/Hint : MP3
Duration : 1h 42mn
Bit rate mode : Variable
Bit rate : 102 Kbps
Nominal bit rate : 112 Kbps
Channel(s) : 2 channels
Sampling rate : 44.1 KHz
Resolution : 16 bits
Stream size : 75.1 MiB (11%)
Alignment : Aligned on interleaves
Interleave, duration : 26 ms (0.65 video frame)
Interleave, preload duration : 187 ms
Writing library : LAME3.97
Encoding settings : -m j -V 4 -q 2 -lowpass 15.6 --abr 112




After the gangsters who killed his father come to settle a score, a teenage boy
and his mother turn the tables on the killers - one Latino family's quest for
honor and revenge as the hunted become the hunters. Wilson DeLeon, Jr. is an
exceptional college student with an adoring girlfriend, doting mother and a
future full of promise. He has never wanted for anything, and he has never been
forced to stand his ground. But when ghosts from his mother's past come back to
haunt his present, he must defend his family ... and quickly turn into the
strong man his father prayed he'd become. Nothing could stop Wilson's mother,
Millie, from protecting her two boys. Forced to flee her home after gangsters
killed her husband, she made an oath to give her children only the best. But all
that changes when an enemy from the past catches up with them. It's finally time
to take action - and now, they're done running. Weapons at the ready, Wilson,
Jr. and Millie prepare for a final showdown with the murderer who robbed him of
a father and her of a husband. Now, in a battle fueled by family ties and blood
feuds, it will become very clear what happens when anyone tries to come between
this son and his mother.

Cast
(Cast overview, first billed only)

Michael Philip Del Rio ... Lugo
Samuel Molina ... Older Man
Rick Sepulveda ... Joey

Manny Perez ... Wilson DeLeon Sr.
D.C. Benny ... Ceasar

Mercedes Mercado ... Latina Killer #1

Carmen Perez ... Latina Killer #2

Zulay Henao ... Mora

Jessica Pimentel ... Young Millie

Angelic Zambrana ... Young Jessenia

Julie Carmen ... Nilsa
Ronald Escobar ... Javier's Man #1
Gary Perez ... Javier Cordero

Rick Gonzalez ... Wilson Jr.

Dania Ramirez ... Ana
ENJOY AS ALWAYS...
SB0

related torrents

Torrent name

health leech seeds Size
 


comments (0)

Main Menu