Family

Everyones Hero(2006) DVDRiP XViD SB0 mazysmadhouse net

  • Download 5x Faster
  • Download torrent
  • Direct Download
  • Rate this torrent +  |  -
Everyones Hero(2006) DVDRiP XViD SB0 mazysmadhouse net

Free and Direct Download with Usenet 300GB+ free


Torrent info

Name:Everyones Hero(2006) DVDRiP XViD SB0 mazysmadhouse net

Total Size: 699.81 MB

Magnet: Magnet Link

Seeds: 0

Leechers: 0

Stream: Watch Online @ Movie4u

Last Updated: 2010-08-01 21:20:48 (Update Now)

Torrent added: 2009-09-09 12:40:51




Torrent Files List


Everyones Hero DVDRiP XViD SB0.avi (Size: 699.81 MB) (Files: 2)

 Everyones Hero DVDRiP XViD SB0.avi

699.81 MB

 Everyones Hero DVDRiP XViD SB0.nfo

4.25 KB
 

Announce URL: http://mazysmadhouse.net/announce.php?passkey=540eac70b42b1e5e94879ff36ca1d5f5

Torrent description

*******************************************************************************
Everyones Hero DVDRiP XViD SB0
*******************************************************************************

-------------------------------------------------------------------------------
General Information
-------------------------------------------------------------------------------
Type.................: Movie



Movie Information....: http://www.imdb.com/title/tt0430779/

-------------------------------------------------------------------------------
Post Information
-------------------------------------------------------------------------------
Posted by............: SB0

-------------------------------------------------------------------------------
Release Notes
-------------------------------------------------------------------------------
General
Complete name : Everyones Hero DVDRiP XViD SB0.avi
Format : AVI
Format/Info : Audio Video Interleave
File size : 700 MiB
Duration : 1h 23mn
Overall bit rate : 1 174 Kbps
Writing application : VirtualDubMod 1.5.4.1 (build 2178/release)
Writing library : VirtualDubMod build 2178/release

Video
Format : MPEG-4 Visual
Format profile : Streaming [email protected]
Format settings, BVOP : Yes
Format settings, QPel : No
Format settings, GMC : No warppoints
Format settings, Matrix : Custom
Codec ID : XVID
Codec ID/Hint : XviD
Duration : 1h 23mn
Bit rate : 1 058 Kbps
Width : 656 pixels
Height : 368 pixels
Display aspect ratio : 16/9
Frame rate : 25.000 fps
Resolution : 24 bits
Colorimetry : 4:2:0
Scan type : Progressive
Bits/(Pixel*Frame) : 0.175
Stream size : 631 MiB (90%)
Writing library : XviD 1.1.2 (UTC 2006-11-01)

Audio
Format : MPEG Audio
Format version : Version 1
Format profile : Layer 3
Codec ID : 55
Codec ID/Hint : MP3
Duration : 1h 23mn
Bit rate mode : Variable
Bit rate : 103 Kbps
Nominal bit rate : 112 Kbps
Channel(s) : 2 channels
Sampling rate : 44.1 KHz
Resolution : 16 bits
Stream size : 61.7 MiB (9%)
Alignment : Aligned on interleaves
Interleave, duration : 26 ms (0.65 video frame)
Interleave, preload duration : 604 ms
Writing library : LAME3.97
Encoding settings : -m j -V 4 -q 2 -lowpass 15.6 --abr 112

A young boy named Yankee Irving finds himself at an extraordinary crossroads: He
has a chance to be a hero...

Cast
(Cast overview, first billed only)

William H. Macy ... Lefty Maginnis (voice)

Rob Reiner ... Screwie (voice)

Brian Dennehy ... Babe Ruth (voice)

Raven-Symoné ... Marti Brewster (voice)

Robert Wagner ... Mr. Robinson (voice)

Richard Kind ... Hobo Andy / Maitre (voice)
Jason Harris ... Announcer (voice)

Jake T. Austin ... Yankee Irving (voice)
Joe Torre ... Yankees' Manager (voice)

Mandy Patinkin ... Stanley Irving (voice)

Forest Whitaker ... Lonnie Brewster (voice)

Whoopi Goldberg ... Darlin' (voice)
Ritchie Allen ... Officer Bryant / Additional Voices (voice)

Cherise Boothe ... Rosetta Brewster (voice)
Jesse Bronstein ... Sandlot Kid #1 (voice)

ENJOY AS ALWAYS.....
SB0

related torrents

Torrent name

health leech seeds Size
 

comments (0)

Main Menu