Horror

Unspeakable DVDRip XVID TFE torrent [supreme speeds com]

  • Download 5x Faster
  • Download torrent
  • Direct Download
  • Rate this torrent +  |  -
Unspeakable DVDRip XVID TFE torrent [supreme speeds com]

Free and Direct Download with Usenet 300GB+ free


Torrent info

Name:Unspeakable DVDRip XVID TFE torrent [supreme speeds com]

Total Size: 587.12 MB

Magnet: Magnet Link

Seeds: 0

Leechers: 0

Stream: Watch Online @ Movie4u

Last Updated: 2010-10-20 00:01:59 (Update Now)

Torrent added: 2009-09-09 11:39:52




Torrent Files List


SAMPLE (Size: 587.12 MB) (Files: 43)

 SAMPLE

  Sample.avi

16.16 MB

 front....jpg

78.82 KB

 nfo.nfo

2.24 KB

 Unspeakable DVDRip TFE.part01.rar

14.31 MB

 Unspeakable DVDRip TFE.part02.rar

14.31 MB

 Unspeakable DVDRip TFE.part03.rar

14.31 MB

 Unspeakable DVDRip TFE.part04.rar

14.31 MB

 Unspeakable DVDRip TFE.part05.rar

14.31 MB

 Unspeakable DVDRip TFE.part06.rar

14.31 MB

 Unspeakable DVDRip TFE.part07.rar

14.31 MB

 Unspeakable DVDRip TFE.part08.rar

14.31 MB

 Unspeakable DVDRip TFE.part09.rar

14.31 MB

 Unspeakable DVDRip TFE.part10.rar

14.31 MB

 Unspeakable DVDRip TFE.part11.rar

14.31 MB

 Unspeakable DVDRip TFE.part12.rar

14.31 MB

 Unspeakable DVDRip TFE.part13.rar

14.31 MB

 Unspeakable DVDRip TFE.part14.rar

14.31 MB

 Unspeakable DVDRip TFE.part15.rar

14.31 MB

 Unspeakable DVDRip TFE.part16.rar

14.31 MB

 Unspeakable DVDRip TFE.part17.rar

14.31 MB

 Unspeakable DVDRip TFE.part18.rar

14.31 MB

 Unspeakable DVDRip TFE.part19.rar

14.31 MB

 Unspeakable DVDRip TFE.part20.rar

14.31 MB

 Unspeakable DVDRip TFE.part21.rar

14.31 MB

 Unspeakable DVDRip TFE.part22.rar

14.31 MB

 Unspeakable DVDRip TFE.part23.rar

14.31 MB

 Unspeakable DVDRip TFE.part24.rar

14.31 MB

 Unspeakable DVDRip TFE.part25.rar

14.31 MB

 Unspeakable DVDRip TFE.part26.rar

14.31 MB

 Unspeakable DVDRip TFE.part27.rar

14.31 MB

 Unspeakable DVDRip TFE.part28.rar

14.31 MB

 Unspeakable DVDRip TFE.part29.rar

14.31 MB

 Unspeakable DVDRip TFE.part30.rar

14.31 MB

 Unspeakable DVDRip TFE.part31.rar

14.31 MB

 Unspeakable DVDRip TFE.part32.rar

14.31 MB

 Unspeakable DVDRip TFE.part33.rar

14.31 MB

 Unspeakable DVDRip TFE.part34.rar

14.31 MB

 Unspeakable DVDRip TFE.part35.rar

14.31 MB

 Unspeakable DVDRip TFE.part36.rar

14.31 MB

 Unspeakable DVDRip TFE.part37.rar

14.31 MB

 Unspeakable DVDRip TFE.part38.rar

14.31 MB

 Unspeakable DVDRip TFE.part39.rar

14.31 MB

 Unspeakable DVDRip TFE.part40.rar

12.99 MB
 

Announce URL: http://supreme-speeds.com/announce.php?passkey=a574494afd9b9b2a760ec91a98c076f3

Torrent description

Plot:

For foster parents Sam and Doris Hickle this sunny fall morning
started as any other day until the doorbell rang. Thinking that
new foster children were being dropped off they open the door
into a nightmare – A masked man who takes them hostage! The man
is searching for Donnie, Doris' twin brother and revealing
unspeakable truths. As the family races to find Donnie, Sam
and Doris come to realize that everything horrific does not
hide behind a mask.

Video And Audio:

Video
Format : MPEG-4 Visual
Format profile : Streaming [email protected]
Format settings, BVOP : Yes
Format settings, QPel : No
Format settings, GMC : No warppoints
Format settings, Matrix : Default (MPEG)
Muxing mode : Packed bitstream
Codec ID : XVID
Codec ID/Hint : XviD
Duration : 1h 22mn
Bit rate : 830 Kbps
Width : 592 pixels
Height : 336 pixels
Display aspect ratio : 16/9
Frame rate : 23.976 fps
Resolution : 24 bits
Colorimetry : 4:2:0
Scan type : Progressive
Bits/(Pixel*Frame) : 0.174
Stream size : 490 MiB (86%)
Writing library : XviD 1.2.0.dev47 (UTC 2006-11-01)

Audio
Format : MPEG Audio
Format version : Version 1
Format profile : Layer 3
Codec ID : 55
Codec ID/Hint : MP3
Duration : 1h 22mn
Bit rate mode : Constant
Bit rate : 128 Kbps
Channel(s) : 2 channels
Sampling rate : 48.0 KHz
Resolution : 16 bits
Stream size : 75.5 MiB (13%)


Join us at supreme-speeds.com and enjoy the latest downloads like this one!

All torrents are seeded by servers which means you will get your max download speed.

We have all the latest TV Episodes, Movies, Games, Music, MMA, WWE and alot more.
We will have all new stuff on the site minutes after its been released onto the net.

If my uploads where where not real i would of been banned by now.

Registrations are open and when you signup you receive
2gb upload credit and 100 bonus points

Remember for this download to start you must register at http://supreme-speeds.com which
takes 1 minute and then you download the torrent from there at very fast speeds.

thanks from our friendly staff at team supreme

related torrents

Torrent name

health leech seeds Size
 

comments (0)

Main Menu