Horror

House Of Sand And Fog DVDRip XviD AC3 5rFF torrent [supreme speeds com]

  • Download 5x Faster
  • Download torrent
  • Direct Download
  • Rate this torrent +  |  -

Torrent info

Name:House Of Sand And Fog DVDRip XviD AC3 5rFF torrent [supreme speeds com]

Total Size: 2.01 GB

Magnet: Magnet Link

Seeds: 0

Leechers: 0

Stream: Watch Online @ Movie4u

Last Updated: 2010-08-08 09:03:18 (Update Now)

Torrent added: 2009-09-09 10:43:54




Torrent Files List


Sample (Size: 2.01 GB) (Files: 5)

 Sample

  5rFF-hsf-sample.avi

14.32 MB

  info.jpg

27.36 KB

 5rFF-hsf.avi

1.99 GB

 info.jpg

27.36 KB

 NFO.txt

2.04 KB
 

Announce URL: http://supreme-speeds.com/announce.php?passkey=1c620190651fbc0715e1f5d7b02888f8

Torrent description

http://www.imdb.com/title/tt0315983/

An emotionally broken woman, Kathy, suddenly finds herself homeless after her house is wrongly repossessed and auctioned. Seeking respite from his marriage, Lester, a lustful but sympathetic sheriff's deputy comes to the aid of Kathy and becomes intimately involved in her situation. Soon, Behrani, a proud emigrant Iranian and his family move into the house only to find their new lives burdened by hara*sment from Lester and Kathy as they attempt to reclaim her former home. The once prosperous colonel denies Kathy's pleas for he knows his recent purchase promises a profitable return and a better future for his adolescent son and extravagant wife. But latent consequences lie beneath Behrani's well intentioned plan as Kathy's emotions spiral out of control and her actions spark a tragic chain of events that will leave no resident unscathed in the House of Sand and Fog.

General
Complete name : 5rFF-hsf.avi
Format : AVI
Format/Info : Audio Video Interleave
Format profile : OpenDML
File size : 1.99 GiB
Duration : 2h 6mn
Overall bit rate : 2 262 Kbps
Writing application : VirtualDubMod 1.5.4.1 (build 2178/release)
Writing library : VirtualDubMod build 2178/release

Video
Format : MPEG-4 Visual
Format profile : Streaming [email protected]
Format settings, BVOP : No
Format settings, QPel : No
Format settings, GMC : No warppoints
Format settings, Matrix : Custom
Codec ID : XVID
Codec ID/Hint : XviD
Duration : 2h 6mn
Bit rate : 1 806 Kbps
Width : 720 pixels
Height : 400 pixels
Display aspect ratio : 16/9
Frame rate : 23.976 fps
Resolution : 24 bits
Colorimetry : 4:2:0
Scan type : Progressive
Bits/(Pixel*Frame) : 0.261
Stream size : 1.59 GiB (80%)
Writing library : XviD 50

Audio
Format : AC-3
Format/Info : Audio Coding 3
Codec ID : 2000
Duration : 2h 6mn
Bit rate mode : Constant
Bit rate : 448 Kbps
Channel(s) : 6 channels
Channel positions : Front: L C R, Rear: L R, LFE
Sampling rate : 48.0 KHz
Stream size : 404 MiB (20%)
Alignment : Split accross interleaves
Interleave, duration : 96 ms (2.30 video frames)
Interleave, preload duration : 96 ms
Language : English

This image has been resized. Click this bar to view the full image. The original image is sized 720x400.

This image has been resized. Click this bar to view the full image. The original image is sized 720x400.

This image has been resized. Click this bar to view the full image. The original image is sized 720x400.

This image has been resized. Click this bar to view the full image. The original image is sized 720x400.

related torrents

Torrent name

health leech seeds Size
 


comments (0)

Main Menu