Action

Whitechapel DVDRip XviD torrent [supreme speeds com]

  • Download 5x Faster
  • Download torrent
  • Direct Download
  • Rate this torrent +  |  -
Whitechapel DVDRip XviD torrent [supreme speeds com]

Anonymous and Direct Download 300GB+ free


Torrent info

Name:Whitechapel DVDRip XviD torrent [supreme speeds com]

Total Size: 1.01 GB

Magnet: Magnet Link

Seeds: 0

Leechers: 0

Stream: Watch Online @ Movie4u

Last Updated: 2010-09-10 11:20:43 (Update Now)

Torrent added: 2009-09-09 10:38:56




Torrent Files List


info.jpg (Size: 1.01 GB) (Files: 25)

 info.jpg

27.36 KB

 Whitechapel DVDRip XviD-unknow.nfo

1.69 KB

 Whitechapel.DVDRip.XviD Torrent.Danix-bg.part01.rar

47.68 MB

 Whitechapel.DVDRip.XviD Torrent.Danix-bg.part02.rar

47.68 MB

 Whitechapel.DVDRip.XviD Torrent.Danix-bg.part03.rar

47.68 MB

 Whitechapel.DVDRip.XviD Torrent.Danix-bg.part04.rar

47.68 MB

 Whitechapel.DVDRip.XviD Torrent.Danix-bg.part05.rar

47.68 MB

 Whitechapel.DVDRip.XviD Torrent.Danix-bg.part06.rar

47.68 MB

 Whitechapel.DVDRip.XviD Torrent.Danix-bg.part07.rar

47.68 MB

 Whitechapel.DVDRip.XviD Torrent.Danix-bg.part08.rar

47.68 MB

 Whitechapel.DVDRip.XviD Torrent.Danix-bg.part09.rar

47.68 MB

 Whitechapel.DVDRip.XviD Torrent.Danix-bg.part10.rar

47.68 MB

 Whitechapel.DVDRip.XviD Torrent.Danix-bg.part11.rar

47.68 MB

 Whitechapel.DVDRip.XviD Torrent.Danix-bg.part12.rar

47.68 MB

 Whitechapel.DVDRip.XviD Torrent.Danix-bg.part13.rar

47.68 MB

 Whitechapel.DVDRip.XviD Torrent.Danix-bg.part14.rar

47.68 MB

 Whitechapel.DVDRip.XviD Torrent.Danix-bg.part15.rar

47.68 MB

 Whitechapel.DVDRip.XviD Torrent.Danix-bg.part16.rar

47.68 MB

 Whitechapel.DVDRip.XviD Torrent.Danix-bg.part17.rar

47.68 MB

 Whitechapel.DVDRip.XviD Torrent.Danix-bg.part18.rar

47.68 MB

 Whitechapel.DVDRip.XviD Torrent.Danix-bg.part19.rar

47.68 MB

 Whitechapel.DVDRip.XviD Torrent.Danix-bg.part20.rar

47.68 MB

 Whitechapel.DVDRip.XviD Torrent.Danix-bg.part21.rar

47.68 MB

 Whitechapel.DVDRip.XviD Torrent.Danix-bg.part22.rar

36.74 MB

 Whitechapel.DVDRip.XviD.sfv

1.58 KB
 

Announce URL: http://supreme-speeds.com/announce.php?passkey=1c620190651fbc0715e1f5d7b02888f8

Torrent description

Whitechapel DVDRip XviD-unknow


Codec ID : XVID
Codec ID/Hint : XviD
Duration : 2h 16mn
Bit rate : 943 Kbps
Width : 640 pixels
Height : 352 pixels
Display aspect ratio : 16/9
Frame rate : 25.000 fps
Resolution : 24 bits
Colorimetry : 4:2:0
Scan type : Progressive
Bits/(Pixel*Frame) : 0.167
Stream size : 919 MiB (88%)
Writing library : XviD 1.2.0SMP (UTC 2006-01-08)
Audio
Format : MPEG Audio
Format version : Version 1
Format profile : Layer 3
Codec ID : 55
Codec ID/Hint : MP3
Duration : 2h 16mn
Bit rate mode : Variable
Bit rate : 122 Kbps
Minimum bit rate : 128 Kbps
Channel(s) : 2 channels
Sampling rate : 48.0 KHz
Resolution : 16 bits
Stream size : 119 MiB (11%)
Alignment : Aligned on interleaves
Interleave, duration : 24 ms (0.60 video frame)
Writing library : LAME3.97
Encoding settings : ABR

Link: http://www.imdb.com/title/tt1186356/

Plot: Set in 2008 and against the hugely atmospheric background of Whitechapel, London, a modern police force are fighting an old adversary. A series of bloody, tragic and impossible crimes would suggest someone is carrying out copycat Jack the Ripper murders. The murders are investigated by our three unlikely heroes: Chandler (Penry-Jones), a fast-tracked, media savvy DI on his first big murder case; Miles (Phil Davis), nearing retirement, a front-line, hard-bitten DS, and Buchan, the eccentrically brilliant Jack the Ripper tour guide.

related torrents

Torrent name

health leech seeds Size
 


comments (0)

Main Menu