Drama

The Soloist CUSTOM DVDR [email protected] SPEEDS torrent [supreme speeds com]

  • Download 5x Faster
  • Download torrent
  • Direct Download
  • Rate this torrent +  |  -

Torrent info

Name:The Soloist CUSTOM DVDR [email protected] SPEEDS torrent [supreme speeds com]

Total Size: 1.89 GB

Magnet: Magnet Link

Seeds: 0

Leechers: 0

Stream: Watch Online @ Movie4u

Last Updated: 2010-05-30 14:34:36 (Update Now)

Torrent added: 2009-09-09 10:35:55




Torrent Files List


VIDEO_TS (Size: 1.89 GB) (Files: 9)

 VIDEO_TS

  info.jpg

27.36 KB

  VIDEO_TS.BUP

12.00 KB

  VIDEO_TS.IFO

12.00 KB

  VIDEO_TS.VOB

56.00 KB

  VTS_01_0.BUP

88.00 KB

  VTS_01_0.IFO

88.00 KB

  VTS_01_0.VOB

35.42 MB

  VTS_01_1.VOB

1.00 GB

  VTS_01_2.VOB

875.87 MB
 

Announce URL: http://supreme-speeds.com/announce.php?passkey=1c620190651fbc0715e1f5d7b02888f8

Torrent description

GET THIS TORRENT AND MUCH MORE @ http://supreme-speeds.com


THIS IS A CUSTOM DVD FILES R READY TO BURN STRAIGHT TO DISC THREW NERO

source used for custom dvd The.Soloist.DVDRip.XviD-JUMANJi


Video
ID : 224 (0xE0)
Format : MPEG Video
Format version : Version 2
Format profile : [email protected]
Format settings, Matrix : Default
Duration : 58mn 52s
Bit rate mode : Variable
Bit rate : 1 887 Kbps
Nominal bit rate : 9 352 Kbps
Width : 720 pixels
Height : 480 pixels
Display aspect ratio : 16/9
Frame rate : 29.970 fps
Standard : NTSC
Colorimetry : 4:2:0
Scan type : Progressive
Bits/(Pixel*Frame) : 0.182
Stream size : 795 MiB (78%)

Audio
ID : 128 (0x80)
Format : AC-3
Format/Info : Audio Coding 3
Duration : 58mn 52s
Bit rate mode : Constant
Bit rate : 448 Kbps
Channel(s) : 6 channels
Channel positions : Front: L C R, Surround: L R, LFE
Sampling rate : 48.0 KHz
Stream size : 189 MiB (18%)

related torrents

Torrent name

health leech seeds Size
 


comments (0)

Main Menu