Rock

Emerson Lake and Palmer Trilogy [k2hd ape]

  • Download 5x Faster
  • Download torrent
  • Direct Download
  • Rate this torrent +  |  -
Emerson Lake and Palmer Trilogy [k2hd ape]

Free and Direct Download with Usenet.nl 300GB+ free


Torrent info

Name:Emerson Lake and Palmer Trilogy [k2hd ape]

Total Size: 273.20 MB

Magnet: Magnet Link

Seeds: 2

Leechers: 0

Stream: Watch Online @ Movie4u

Last Updated: 2016-02-02 00:28:38 (Update Now)

Torrent added: 2009-09-09 10:30:21





Torrent Files List


07 - Trilogy.ape (Size: 273.20 MB) (Files: 9)

 07 - Trilogy.ape

60.70 MB

 09 - Abaddon's Bolero.ape

51.73 MB

 01 - The Endless Enigma (Part One).ape

38.71 MB

 06 - Hoedown (Taken From Rodeo).ape

29.00 MB

 04 - From The Beginning.ape

24.02 MB

 05 - The Sheriff.ape

23.49 MB

 08 - Living Sin.ape

22.39 MB

 03 - The Endless Enigma (Part Two).ape

13.36 MB

 02 - Fugue.ape

9.78 MB
 

tracker

leech seeds
 

Torrent description

REM GENRE Rock
REM DATE 1972
REM DISCID 6309DE09
REM COMMENT "ExactAudioCopy v0.95b4"
PERFORMER "Emerson, Lake & Palmer"
TITLE "Trilogy (K2HD 24Bit Remaster VICP-63174)"
FILE "01 - The Endless Enigma (Part One).wav" WAVE
TRACK 01 AUDIO
TITLE "The Endless Enigma (Part One)"
PERFORMER "Emerson, Lake & Palmer"
INDEX 01 00:00:00
FILE "02 - Fugue.wav" WAVE
TRACK 02 AUDIO
TITLE "Fugue"
PERFORMER "Emerson, Lake & Palmer"
INDEX 01 00:00:00
FILE "03 - The Endless Enigma (Part Two).wav" WAVE
TRACK 03 AUDIO
TITLE "The Endless Enigma (Part Two)"
PERFORMER "Emerson, Lake & Palmer"
INDEX 01 00:00:00
TRACK 04 AUDIO
TITLE "From The Beginning"
PERFORMER "Emerson, Lake & Palmer"
INDEX 00 02:00:16
FILE "04 - From The Beginning.wav" WAVE
INDEX 01 00:00:00
TRACK 05 AUDIO
TITLE "The Sheriff"
PERFORMER "Emerson, Lake & Palmer"
INDEX 00 04:11:43
FILE "05 - The Sheriff.wav" WAVE
INDEX 01 00:00:00
TRACK 06 AUDIO
TITLE "Hoedown (Taken From Rodeo)"
PERFORMER "Emerson, Lake & Palmer"
INDEX 00 03:19:38
FILE "06 - Hoedown (Taken From Rodeo).wav" WAVE
INDEX 01 00:00:00
TRACK 07 AUDIO

related torrents

Torrent name

health leech seeds Size
 

comments (0)

Main Menu