UK

The London Weekend Show Radio Caroline at Sea (24th April 1977) [VHSRip(Xvid)]

  • Download 5x Faster
  • Download torrent
  • Direct Download
  • Rate this torrent +  |  -

Torrent info

Name:The London Weekend Show Radio Caroline at Sea (24th April 1977) [VHSRip(Xvid)]

Total Size: 243.08 MB

Magnet: Magnet Link

Seeds: 6

Leechers: 0

Stream: Watch Full Movie @ Movie4u

Last Updated: 2010-11-04 05:55:55 (Update Now)

Torrent added: 2009-09-09 09:16:53



VPN For Torrents

Torrent Files List


Radio Caroline at Sea - LWT 1977 1.avi (Size: 243.08 MB) (Files: 1)

 Radio Caroline at Sea - LWT 1977 1.avi

243.08 MB
 

Announce URL: http://www.thebox.bz:2710/00000000000000000000000000000000/announce

Torrent description

This torrent was uploaded from www.TheBox.bz (signup is open and free) - the home of all British TV

The London Weekend Show   Radio Caroline at Sea (24th April 1977) [VHSRip(Xvid)] preview 0

London Weekend Show and the story of the development of Offshore Radio and Radio Caroline in particular. Made by London Weekend Television in 1977 and only shown in the LWT area of London. Presented by Janet Street-Porter.

(quality of file reflects recording media of the time)

----
Article Taken from Time Magazine:

Consider the latest chapter in the saga of the pirate radio ships operating in the North Sea. Anchored just outside territorial waters off The Netherlands, these vessels beam a mixture of pop music, disc-jockey egos and insistent commercials into homes otherwise served only by relatively sedate Dutch broadcasting. Until recently, this profitable operation was shared by Radio Veronica and Radio Northsea, which had agreed to a truce after three frogmen hired by one of Veronica's owners had planted a bomb aboard Northsea. Now, though, something new has come between Veronica and Northsea.

The something new is Radio Caroline, a golden oldie that used to aim her programs into Britain from two separate ships until Parliament passed a special law silencing pirate broadcasts. Radio Caroline, which was named by her Irish owner Ronan O'Rahilly after John F. Kennedy's daughter, has now been reduced to one ship, a rusty old coastal vessel called Mi Amigo. Just before Christmas, she anchored in the 300-yd. gap between Veronica and Northsea, five miles off the coast of The Netherlands, and started competing with them for Dutch listeners


Format : AVI
Format/Info : Audio Video Interleave
File size : 243 MiB
Duration : 30mn 32s
Overall bit rate : 1113 Kbps

Video
Format : MPEG-4 Visual
Format settings, BVOP : No
Format settings, QPel : No
Format settings, GMC : No warppoints
Format settings, Matrix : Default
Codec ID : XVID
Codec ID/Hint : XviD
Duration : 30mn 32s
Bit rate : 972 Kbps
Width : 640 pixels
Height : 480 pixels
Display aspect ratio : 4/3
Frame rate : 25.000 fps
Resolution : 8 bits
Colorimetry : 4:2:0
Scan type : Progressive
Bits/(Pixel*Frame) : 0.127
Stream size : 212 MiB (87%)
Writing library : XviD 1.1.2 (UTC 2006-11-01)

Audio
Format : MPEG Audio
Format version : Version 1
Format profile : Layer 3
Codec ID : 55
Codec ID/Hint : MP3
Duration : 30mn 32s
Bit rate mode : Constant
Bit rate : 128 Kbps
Channel(s) : 2 channels
Sampling rate : 44.1 KHz
Resolution : 16 bits
Video delay : 26ms
Stream size : 28.0 MiB (12%)
Alignment : Split accross interleaves
Interleave, duration : 40 ms (1.00 video frame)
Writing library : LAME3.93




===============================

Some of the other rather spiffing shows available now and always if you signup free @ www.TheBox.bz:

Comedy: The Office, Peep Show, Coupling, Chef, Fawlty Towers, Only Fools and Horses, The IT Crowd, Brass Eye, Nathan Barley, Young Ones, Monty Python, Blackadder, Alan Partridge, Father Ted, Coupling, Little Britain, Mr Bean, Extras, Green Wing, Mighty Boosh

Drama: Casualty, Holby City, The Bill, Hustle, Skins, Shameless, Ashes To Ashes

Entertainment: Faking It, Derren Brown, Scrapheap Challenge, Strictly Come Dancing, Wife Swap

Game/Quiz Shows: Whose Line Is It Anyway?, Have I Got News For You, Deal Or No Deal (UK), Q.I.

Education/Documentary: Planet Earth, Horizon, Panorama, Mark Thomas (Comedy) Product

Food: Hell's Kitchen, Jamie Oliver, The F Word, Kitchen Nightmares, Masterchef, Great British Menu, Gordon Ramsay's Cookalong

Home/Property/Garden: Property Ladder, How Clean Is Your House?, Changing Rooms, Grand Designs, Homes Under The Hammer, To Buy Or Not To Buy

Motoring: Top Gear, Fifth Gear

Music: Top Of The Pops, Jools Holland, Glastonbury

Reality: Big Brother, Celebrity Big Brother, I'm a Celebrity - Get Me Out of Here!, Any Dream Will Do, Grease, Pop Idol, Wife Swap, X Factor, Badger Or Bust, Apprentice UK, Dragons' Den, Britain's Got Talent

Sci-Fi: Doctor Who, Red Dwarf, Torchwood, Primeval

Sport: Football (Soccer), Cricket, Rugby, Snooker, Darts, Formula One (F1GP)

Soaps: Eastenders, Coronation Street, Emmerdale, Neighbours, Hollyoaks

Style/Fashion: What Not To Wear, Project Catwalk

Kids: Teletubbies, Blue Peter, Tikkabilla, Andy Pandy, Postman Pat, Shoebox Zoo, Brum, Bob The Builder, Young Dracula, Sarah Jane Adventures, Shaun The Sheep

related torrents

Torrent name

health leech seeds Size
 


comments (0)

Main Menu

 

script data-cfasync="false" src="//d2ghscazvn398x.cloudfront.net/?cshgd=690275">