UK

Tis' The Season to be Jolly (31st December 1993) [TVRip(DivX)]

  • Download 5x Faster
  • Download torrent
  • Direct Download
  • Rate this torrent +  |  -
Tis' The Season to be Jolly (31st December 1993) [TVRip(DivX)]

Anonymous and Free Direct Download 300GB+


Torrent info

Name:Tis' The Season to be Jolly (31st December 1993) [TVRip(DivX)]

Total Size: 682.03 MB

Magnet: Magnet Link

Seeds: 0

Leechers: 0

Stream: Watch Online @ Movie4u

Last Updated: 2015-09-28 14:36:45 (Update Now)

Torrent added: 2009-09-09 09:13:43



VPN For Torrents

Torrent Files List


Tis the season to be jolly.avi (Size: 682.03 MB) (Files: 1)

 Tis the season to be jolly.avi

682.03 MB
 

tracker

leech seeds
 

Torrent description

This torrent was uploaded from www.TheBox.bz (signup is open and free) - the home of all British TV

Tis' The Season to be Jolly (31st December 1993) [TVRip(DivX)] preview 0

Scotlands Annual Hogmanay IM Jolly Special from New Year Eve 1993

Chestnuts Roasting on an open fire, Jack Frost nipping at your nose... that`s what Christmas is all about - burnt nuts and frostbite. So sayeth the good reverend, Jolly. His festive season starts off with the usual melee - prison riots, undercooked turkey and an increase in the suicide rate.

Format : AVI
Format/Info : Audio Video Interleave
File size : 682 MiB
Duration : 47:20
Overal bit rate : 224 Mbps

Video
Format : MPEG-4 Visual
Format profile : [email protected]
Format settings, BVOP : No
Format settings, QPel : No
Format settings, GMC : No warpoints
Format settings, Matrix : Default
Codec ID : DX50
Codec ID/Hint : DivX 5
Duration : 47:20
Bit rate : 201 Mbps
Width : 768 pixels
Height : 576 pixels
Display aspect ratio : 4/3
Frame rate : 23.970 fps
Resolution : 8 bits
Colorimetry : 4:2:0
Scan type : Progressive
Bits/(Pixel*Frame) : 18.959
Stream size : 613 MiB
Writing library : Lavc51.25.0

Audio
Format : MPEG Audio
Format version : Version 1
Format profile : Layer 3
Codec ID : 55
Codec ID/Hint : MP3
Bit rate mode : Constant
Bit rate : 192 Kbps
Channel(s) : 2 channels
Sampling rate : 44.1 KHz
Resolution : 16 bits
Stream size : 65.0 MiB
Writing library : LAME3.89 (alpha)


(please note I am ISP restricted so can only seed between 11pm and 8am, so please be patient)

===============================

Some of the other rather spiffing shows available now and always if you signup free @ www.TheBox.bz:

Comedy: The Office, Peep Show, Coupling, Chef, Fawlty Towers, Only Fools and Horses, The IT Crowd, Brass Eye, Nathan Barley, Young Ones, Monty Python, Blackadder, Alan Partridge, Father Ted, Coupling, Little Britain, Mr Bean, Extras, Green Wing, Mighty Boosh

Drama: Casualty, Holby City, The Bill, Hustle, Skins, Shameless, Ashes To Ashes

Entertainment: Faking It, Derren Brown, Scrapheap Challenge, Strictly Come Dancing, Wife Swap

Game/Quiz Shows: Whose Line Is It Anyway?, Have I Got News For You, Deal Or No Deal (UK), Q.I.

Education/Documentary: Planet Earth, Horizon, Panorama, Mark Thomas (Comedy) Product

Food: Hell's Kitchen, Jamie Oliver, The F Word, Kitchen Nightmares, Masterchef, Great British Menu, Gordon Ramsay's Cookalong

Home/Property/Garden: Property Ladder, How Clean Is Your House?, Changing Rooms, Grand Designs, Homes Under The Hammer, To Buy Or Not To Buy

Motoring: Top Gear, Fifth Gear

Music: Top Of The Pops, Jools Holland, Glastonbury

Reality: Big Brother, Celebrity Big Brother, I'm a Celebrity - Get Me Out of Here!, Any Dream Will Do, Grease, Pop Idol, Wife Swap, X Factor, Badger Or Bust, Apprentice UK, Dragons' Den, Britain's Got Talent

Sci-Fi: Doctor Who, Red Dwarf, Torchwood, Primeval

Sport: Football (Soccer), Cricket, Rugby, Snooker, Darts, Formula One (F1GP)

Soaps: Eastenders, Coronation Street, Emmerdale, Neighbours, Hollyoaks

Style/Fashion: What Not To Wear, Project Catwalk

Kids: Teletubbies, Blue Peter, Tikkabilla, Andy Pandy, Postman Pat, Shoebox Zoo, Brum, Bob The Builder, Young Dracula, Sarah Jane Adventures, Shaun The Sheep

related torrents

Torrent name

health leech seeds Size
 


comments (0)

Main Menu